[Login] or [Signup]
Login
Username:
Password:
[Signup]
[Recover Account]


Poll


You must be logged in to view polls



Torrent Details For "Tad the Lost Explorer and the Secret of King Midas 2017 720p BluRay x264"

Tad the Lost Explorer and the Secret of King Midas 2017 720p BluRay x264

Download this torrent | Magnet Download
Health:
Seeds: 0
Leechers: 1
Completed: 3,903 
Last Checked: 13-05-2018 19:00:43
External Torrent
Update Stats
Download Magnet


Poster


Watch-Free-HD     Download

Details
Name:Tad the Lost Explorer and the Secret of King Midas 2017 720p BluRay x264
Description:


General
Format                      : Matroska
Format version              : Version 4 / Version 2
File size                   : 995 MiB
Duration                    : 1 h 24 min
Overall bit rate            : 1 637 kb/s

Video
ID                          : 1
Format                      : AVC
Format/Info                 : Advanced Video Codec
Format profile              : [email protected]
Format settings             : CABAC / 4 Ref Frames
Format settings, CABAC      : Yes
Format settings, ReFrames   : 4 frames
Codec ID                    : V_MPEG4/ISO/AVC
Duration                    : 1 h 24 min
Bit rate                    : 1 500 kb/s
Width                       : 1 280 pixels
Height                      : 544 pixels
Display aspect ratio        : 2.35:1
Frame rate mode             : Constant
Frame rate                  : 23.976 (24000/1001) FPS
Color space                 : YUV
Chroma subsampling          : 4:2:0
Bit depth                   : 8 bits
Scan type                   : Progressive
Bits/(Pixel*Frame)          : 0.090
Stream size                 : 916 MiB (92%)
Writing library             : x264 core 148 r2708 86b7198
Default                     : Yes
Forced                      : No

Audio
ID                          : 2
Format                      : AAC
Format/Info                 : Advanced Audio Codec
Format profile              : LC
Codec ID                    : A_AAC-2
Duration                    : 1 h 24 min
Bit rate                    : 128 kb/s
Channel(s)                  : 2 channels
Channel positions           : Front: L R
Sampling rate               : 44.1 kHz
Frame rate                  : 43.066 FPS (1024 SPF)
Compression mode            : Lossy
Stream size                 : 77.8 MiB (8%)
Language                    : English
Default                     : Yes
Forced                      : No

Menu
00:00:00.000                : en:Chapter 1
00:04:23.304                : en:Chapter 2
00:10:52.485                : en:Chapter 3
00:17:06.984                : en:Chapter 4
00:22:32.184                : en:Chapter 5
00:27:32.692                : en:Chapter 6
00:33:01.396                : en:Chapter 7
00:36:20.761                : en:Chapter 8
00:43:11.380                : en:Chapter 9
00:50:25.772                : en:Chapter 10
00:55:26.906                : en:Chapter 11
00:59:23.226                : en:Chapter 12
01:05:02.857                : en:Chapter 13
01:14:29.756                : en:Chapter 14
01:17:34.816                : en:Chapter 15





 http://pichub.site/image/aFGy
 http://pichub.site/image/aeAV
 http://pichub.site/image/abI0
 http://pichub.site/image/ajlT
 http://pichub.site/image/I44N
 http://pichub.site/image/IfCD

Category:Movies > 720P Bluray
Lang:English  English
Total Size:995.23 MB
Info Hash:59abff081f864500591eb990d3d82a4061cf4aa1
Added By:Freaky
Date Added:04-01-2018 06:24:07
Views:207
Hits:59

Download Torrent

Ratings:Not Yet Rated (Log in to rate it)


Tracker:
udp://tracker.coppersurfer.tk:6969/announce


File List: 


Comments

No comments still posted

Powered by 10 Hamsters v2-svn -|- Page Generated In 0.053884 secs.
-|- RSS FEED
Theme By: Nikkbu