[Login] or [Signup]
Login
Username:
Password:
[Signup]
[Recover Account]


Poll


You must be logged in to view polls



Torrent Details For "The Foreigner (2017) Untouched 1080P AVC (Eng+Hin+Tam+Tel) 5.1 ESUBS - MAZE"

The Foreigner (2017) Untouched 1080P AVC (Eng+Hin+Tam+Tel) 5.1 ESUBS - MAZE

Download this torrent | Magnet Download
Health:
Seeds: 0
Leechers: 2
Completed:
Last Checked: 02-11-2018 16:42:40
External Torrent
Update Stats
Download Magnet


Poster


iMDB
Imdb Picture Title: The Foreigner
Year: 2017
Runtime: 114 minutes
Votes: 4339
Rating: 7.4/10
Language: English, Mandarin
Country: UK, China, USA
All Genres: Action, Thriller
Plot Outline: A humble businessman with a buried past seeks justice when his daughter is killed in an act of terrorism. A cat-and-mouse conflict ensues with a government official, whose past may hold clues to the killers' identities.
Tagline: Never push a good man too far
Director: Martin Campbell
Writing By: David Marconi,Stephen Leather,
Produced By: Oren Aviv,Phillip Button,Jackie Chan,Cary Cheng,Adam Fogelson,Wayne Marc Godfrey,Defu Jiang,Penny Jiang,Claire Kupchak,Arnaud Lannic,Stephen Leather,Zhao Lei,Dave Li,Karl Li,D. Scott Lumpkin,David Marconi,Jamie Marshall,Jianhong Qi,Arthur M. Sarkissian,Cathy Schulman,Robert Simonds,Sunny Sun,Joe Tam,Donald Tang,Zhongjun Wang,Zhonglei Wang,Andrew Warren,Liu Xinxuan,John Zeng,
Music: Cliff Martinez
Cast:
Katie Leung as Fan
Jackie Chan as Quan Ngoc Minh
Rufus Jones as Ian Wood
Mark Tandy as Simpson
John Cronin as Denis Fisher
Caolan Byrne as McCormick
Donna Bernard as Channel A News Anchor
Aaron Monaghan as Pat Nugent
Niall McNamee as Patrick O'Reilly
Pierce Brosnan as Liam Hennessy
Trailers:
Trailer #2
Trailer #1


Watch-Free-HD     Download

Details
Name:The Foreigner (2017) Untouched 1080P AVC (Eng+Hin+Tam+Tel) 5.1 ESUBS - MAZE
Description:
The Foreigner (2017) Untouched 1080P AVC (Eng+Hin+Tam+Tel) 5.1 ESUBS - MAZE

General
Complete name                            : The Foreigner (2017) Untouched 1080P AVC (Eng+Hin+Tam+Tel) 5.1 ESUBS - MAZE.mp4
Format                                   : MPEG-4
Format profile                           : Base Media / Version 2
Codec ID                                 : mp42 (isom/iso2/avc1/mp41)
File size                                : 5.07 GiB
Duration                                 : 1 h 50 min
Overall bit rate mode                    : Variable
Overall bit rate                         : 6 571 kb/s
Movie name                               : The Foreigner - MAZE HDRelease
Album                                    : The Foreigner - MAZE HDRelease
Album/Performer                          : Martin Campbell - MAZE HDRelease
Track name/Position                      : 1
Performer                                : Jackie Chan
Composer                                 : The Foreigner - MAZE HDRelease
Genre                                    :  Action, Crime, Drama
Recorded date                            : 2017
Encoded date                             : UTC 2018-01-01 14:36:42
Tagged date                              : UTC 2018-01-01 14:36:42
Writing application                      : HandBrake 1.0.7 2017040900
Cover                                    : Yes
Comment                                  : A humble businessman with a buried past seeks justice when his daughter is killed in an act of terrorism. A cat-and-mouse conflict ensues with a government official, whose past may hold clues to the killers' identities. - MAZE HDRelease
disc                                     : The Foreigner - MAZE HDRelease

Video
ID                                       : 1
Format                                   : AVC
Format/Info                              : Advanced Video Codec
Format profile                           : [email protected]
Format settings                          : CABAC / 4 Ref Frames
Format settings, CABAC                   : Yes
Format settings, RefFrames               : 4 frames
Codec ID                                 : avc1
Codec ID/Info                            : Advanced Video Coding
Duration                                 : 1 h 50 min
Bit rate                                 : 5 776 kb/s
Width                                    : 1 920 pixels
Height                                   : 1 080 pixels
Display aspect ratio                     : 16:9
Frame rate mode                          : Variable
Frame rate                               : 23.976 (24000/1001) FPS
Minimum frame rate                       : 23.974 FPS
Maximum frame rate                       : 23.981 FPS
Color space                              : YUV
Chroma subsampling                       : 4:2:0
Bit depth                                : 8 bits
Scan type                                : Progressive
Bits/(Pixel*Frame)                       : 0.116
Stream size                              : 4.45 GiB (88%)
Encoded date                             : UTC 2018-01-01 14:36:42
Tagged date                              : UTC 2018-01-01 14:36:42
Color range                              : Limited
Color primaries                          : BT.601 NTSC
Transfer characteristics                 : BT.709
Matrix coefficients                      : BT.601

Audio #1
ID                                       : 2
Format                                   : AAC
Format/Info                              : Advanced Audio Codec
Format profile                           : LC
Codec ID                                 : mp4a-40-2
Duration                                 : 1 h 50 min
Bit rate mode                            : Variable
Bit rate                                 : 192 kb/s
Channel(s)                               : 2 channels
Channel(s)_Original                      : 6 channels
Channel positions                        : Front: L C R, Side: L R, LFE
Sampling rate                            : 48.0 kHz
Frame rate                               : 46.875 FPS (1024 SPF)
Compression mode                         : Lossy
Stream size                              : 152 MiB (3%)
Title                                    : Surround / Surround
Language                                 : English
Default                                  : Yes
Alternate group                          : 1
Encoded date                             : UTC 2018-01-01 14:36:42
Tagged date                              : UTC 2018-01-01 14:36:42

Audio #2
ID                                       : 3
Format                                   : AAC
Format/Info                              : Advanced Audio Codec
Format profile                           : LC
Codec ID                                 : mp4a-40-2
Duration                                 : 1 h 50 min
Bit rate mode                            : Variable
Bit rate                                 : 192 kb/s
Channel(s)                               : 2 channels
Channel(s)_Original                      : 6 channels
Channel positions                        : Front: L C R, Side: L R, LFE
Sampling rate                            : 48.0 kHz
Frame rate                               : 46.875 FPS (1024 SPF)
Compression mode                         : Lossy
Stream size                              : 152 MiB (3%)
Title                                    : Surround / Surround
Language                                 : Hindi
Default                                  : No
Alternate group                          : 1
Encoded date                             : UTC 2018-01-01 14:36:42
Tagged date                              : UTC 2018-01-01 14:36:42

Audio #3
ID                                       : 4
Format                                   : AAC
Format/Info                              : Advanced Audio Codec
Format profile                           : LC
Codec ID                                 : mp4a-40-2
Duration                                 : 1 h 50 min
Bit rate mode                            : Variable
Bit rate                                 : 192 kb/s
Channel(s)                               : 2 channels
Channel(s)_Original                      : 6 channels
Channel positions                        : Front: L C R, Side: L R, LFE
Sampling rate                            : 48.0 kHz
Frame rate                               : 46.875 FPS (1024 SPF)
Compression mode                         : Lossy
Stream size                              : 152 MiB (3%)
Title                                    : Surround / Surround
Language                                 : Tamil
Default                                  : No
Alternate group                          : 1
Encoded date                             : UTC 2018-01-01 14:36:42
Tagged date                              : UTC 2018-01-01 14:36:42

Audio #4
ID                                       : 5
Format                                   : AAC
Format/Info                              : Advanced Audio Codec
Format profile                           : LC
Codec ID                                 : mp4a-40-2
Duration                                 : 1 h 50 min
Bit rate mode                            : Variable
Bit rate                                 : 192 kb/s
Channel(s)                               : 2 channels
Channel(s)_Original                      : 6 channels
Channel positions                        : Front: L C R, Side: L R, LFE
Sampling rate                            : 48.0 kHz
Frame rate                               : 46.875 FPS (1024 SPF)
Compression mode                         : Lossy
Stream size                              : 152 MiB (3%)
Title                                    : Surround / Surround
Language                                 : Telugu
Default                                  : No
Alternate group                          : 1
Encoded date                             : UTC 2018-01-01 14:36:42
Tagged date                              : UTC 2018-01-01 14:36:42

Text
ID                                       : 6
Format                                   : VobSub
Codec ID                                 : mp4s-E0
Codec ID/Info                            : The same subtitle format used on DVDs
Duration                                 : 1 h 43 min
Bit rate mode                            : Variable
Bit rate                                 : 4 457 b/s
Stream size                              : 3.29 MiB (0%)
Language                                 : English
Default                                  : Yes
Forced                                   : No
Alternate group                          : 3
Encoded date                             : UTC 2018-01-01 14:36:42
Tagged date                              : UTC 2018-01-01 14:36:42



 
Category:Movies > 1080P Bluray
Lang:English  English
Total Size:5.07 GB
Info Hash:2e3a3ce04114ab9259791f2e1d1ebf681e85b78c
Added By:raanathiran
Date Added:01-01-2018 16:22:20
Views:213
Hits:29

Download Torrent

Ratings:Not Yet Rated (Log in to rate it)


Tracker:
http://ipv4.tracker.harry.lu/announce

This Torrent also has backup trackers
URLSeedersLeechersCompleted
http://ipv4.tracker.harry.lu/announce110
http://ipv4.tracker.harry.lu:80/announce110
http://open.kickasstracker.com/announce120
http://open.kickasstracker.com:443/announce120


File List: 


Comments

No comments still posted

Powered by 10 Hamsters v2-svn -|- Page Generated In 0.183226 secs.
-|- RSS FEED
Theme By: Nikkbu