[Login] or [Signup]
Login
Username:
Password:
[Signup]
[Recover Account]


Poll


You must be logged in to view polls



Torrent Details For "Mariah Careys All I Want for Christmas Is You 2017 1080p BluRay AC3 5.1 x264 MSubs"

Mariah Careys All I Want for Christmas Is You 2017 1080p BluRay AC3 5.1 x264 MSubs

Download this torrent | Magnet Download
Health:
Seeds: 0
Leechers: 4
Completed: 232 
Last Checked: 17-10-2018 18:15:54
External Torrent
Update Stats
Download Magnet


Poster


Watch-Free-HD     Download

Details
Name:Mariah Careys All I Want for Christmas Is You 2017 1080p BluRay AC3 5.1 x264 MSubs
Description:



General
Format                                   : Matroska
Format version                           : Version 4 / Version 2
File size                                : 1.45 GiB
Duration                                 : 1 h 30 min
Overall bit rate                         : 2 289 kb/s


Video
ID                                       : 1
Format                                   : AVC
Format/Info                              : Advanced Video Codec
Format profile                           : [email protected]
Format settings                          : CABAC / 4 Ref Frames
Format settings, CABAC                   : Yes
Format settings, RefFrames               : 4 frames
Codec ID                                 : V_MPEG4/ISO/AVC
Duration                                 : 1 h 30 min
Bit rate                                 : 2 000 kb/s
Width                                    : 1 920 pixels
Height                                   : 1 080 pixels
Display aspect ratio                     : 16:9
Frame rate mode                          : Constant
Frame rate                               : 23.976 (23976/1000) FPS
Color space                              : YUV
Chroma subsampling                       : 4:2:0
Bit depth                                : 8 bits
Scan type                                : Progressive
Bits/(Pixel*Frame)                       : 0.040
Stream size                              : 1.26 GiB (87%)
Writing library                          : x264 core 148 r2643 5c65704
Language                                 : English
Default                                  : Yes
Forced                                   : No

Audio
ID                                       : 2
Format                                   : AC-3
Format/Info                              : Audio Coding 3
Format settings, Endianness              : Big
Codec ID                                 : A_AC3
Duration                                 : 1 h 30 min
Bit rate mode                            : Constant
Bit rate                                 : 256 kb/s
Channel(s)                               : 6 channels
Channel positions                        : Front: L C R, Side: L R, LFE
Sampling rate                            : 48.0 kHz
Frame rate                               : 31.250 FPS (1536 SPF)
Bit depth                                : 16 bits
Compression mode                         : Lossy
Stream size                              : 166 MiB (11%)
Language                                 : English
Service kind                             : Complete Main
Default                                  : Yes
Forced                                   : No


Quote:

Text #1
ID                                       : 3
Format                                   : VobSub
Muxing mode                              : zlib
Codec ID                                 : S_VOBSUB
Codec ID/Info                            : Picture based subtitle format used on DVDs
Duration                                 : 1 h 22 min
Bit rate                                 : 7 376 b/s
Count of elements                        : 1428
Stream size                              : 4.35 MiB (0%)
Language                                 : English
Default                                  : Yes
Forced                                   : No

Text #2
ID                                       : 4
Format                                   : VobSub
Muxing mode                              : zlib
Codec ID                                 : S_VOBSUB
Codec ID/Info                            : Picture based subtitle format used on DVDs
Duration                                 : 1 h 29 min
Bit rate                                 : 5 158 b/s
Count of elements                        : 1044
Stream size                              : 3.31 MiB (0%)
Language                                 : German
Default                                  : No
Forced                                   : No

Text #3
ID                                       : 5
Format                                   : VobSub
Muxing mode                              : zlib
Codec ID                                 : S_VOBSUB
Codec ID/Info                            : Picture based subtitle format used on DVDs
Duration                                 : 1 h 29 min
Bit rate                                 : 5 239 b/s
Count of elements                        : 1044
Stream size                              : 3.36 MiB (0%)
Language                                 : Danish
Default                                  : No
Forced                                   : No

Text #4
ID                                       : 6
Format                                   : VobSub
Muxing mode                              : zlib
Codec ID                                 : S_VOBSUB
Codec ID/Info                            : Picture based subtitle format used on DVDs
Duration                                 : 1 h 29 min
Bit rate                                 : 4 603 b/s
Count of elements                        : 1041
Stream size                              : 2.95 MiB (0%)
Language                                 : Finnish
Default                                  : No
Forced                                   : No

Text #5
ID                                       : 7
Format                                   : VobSub
Muxing mode                              : zlib
Codec ID                                 : S_VOBSUB
Codec ID/Info                            : Picture based subtitle format used on DVDs
Duration                                 : 1 h 29 min
Bit rate                                 : 4 781 b/s
Count of elements                        : 1046
Stream size                              : 3.07 MiB (0%)
Language                                 : French
Default                                  : No
Forced                                   : No

Text #6
ID                                       : 8
Format                                   : VobSub
Muxing mode                              : zlib
Codec ID                                 : S_VOBSUB
Codec ID/Info                            : Picture based subtitle format used on DVDs
Duration                                 : 1 h 29 min
Bit rate                                 : 4 804 b/s
Count of elements                        : 1044
Stream size                              : 3.08 MiB (0%)
Language                                 : Norwegian
Default                                  : No
Forced                                   : No

Text #7
ID                                       : 9
Format                                   : VobSub
Muxing mode                              : zlib
Codec ID                                 : S_VOBSUB
Codec ID/Info                            : Picture based subtitle format used on DVDs
Duration                                 : 1 h 29 min
Bit rate                                 : 5 012 b/s
Count of elements                        : 1044
Stream size                              : 3.22 MiB (0%)
Language                                 : Swedish
Default                                  : No
Forced                                   : No

Menu
00:00:00.000                             : en:00:00:00.000
00:03:50.397                             : en:00:03:50.397
00:09:11.134                             : en:00:09:11.134
00:13:59.130                             : en:00:13:59.130
00:19:01.849                             : en:00:19:01.849
00:24:38.310                             : en:00:24:38.310
00:29:42.447                             : en:00:29:42.447
00:34:11.341                             : en:00:34:11.341
00:39:06.427                             : en:00:39:06.427
00:44:11.649                             : en:00:44:11.649
00:48:18.896                             : en:00:48:18.896
00:52:20.095                             : en:00:52:20.095
00:57:12.971                             : en:00:57:12.971
01:01:25.557                             : en:01:01:25.557
01:03:18.336                             : en:01:03:18.336
01:07:38.388                             : en:01:07:38.388
01:10:43.322                             : en:01:10:43.322
01:14:24.877                             : en:01:14:24.877
01:20:42.588                             : en:01:20:42.588
01:23:32.591                             : en:01:23:32.591

 
 
 
 
 
 
 

Category:Movies > 1080P Bluray
Lang:English  English
Total Size:1.45 GB
Info Hash:05027c11e59e18445ac0179898c6741ff23d7642
Added By:Freaky
Date Added:30-11-2017 18:28:53
Views:117
Hits:16

Download Torrent

Ratings:Not Yet Rated (Log in to rate it)


Tracker:
http://ipv4.tracker.harry.lu/announce

This Torrent also has backup trackers
URLSeedersLeechersCompleted
http://ipv4.tracker.harry.lu/announce3113
http://ipv4.tracker.harry.lu:80/announce3113
http://open.kickasstracker.com/announce000
http://open.kickasstracker.com:443/announce000
http://82.209.230.66/announce431
http://163.172.180.68/announce3113


File List: 


Comments

No comments still posted

Powered by 10 Hamsters v2-svn -|- Page Generated In 0.007379 secs.
-|- RSS FEED
Theme By: Nikkbu