[Login] or [Signup]
Login
Username:
Password:
[Signup]
[Recover Account]


Poll


You must be logged in to view polls



Torrent Details For "Martin Garrix & Troye Sivan - There For You (HD) with English Subtitles"

Martin Garrix & Troye Sivan - There For You (HD) with English Subtitles

Download this torrent | Magnet Download
Health:
Seeds: 0
Leechers: 5
Completed:
Last Checked: 13-10-2018 16:30:21
External Torrent
Update Stats
Download Magnet


Poster


Watch-Free-HD     Download

Details
Name:Martin Garrix & Troye Sivan - There For You (HD) with English Subtitles
Description:
Martin Garrix & Troye Sivan - There For You (HD) + Eng Sub



Martin Garrix & Troye Sivan - There For You (HD) with English Subtitles



Media Info

General
Complete name                            : Martin Garrix & Troye Sivan - There For You (HD) + Eng Sub.mkv
Format                                   : Matroska
Format version                           : Version 4 / Version 2
File size                                : 44.3 MiB
Duration                                 : 3 min 40 s
Overall bit rate                         : 1 689 kb/s


Video
ID                                       : 1
Format                                   : AVC
Format/Info                              : Advanced Video Codec
Format profile                           : [email protected]
Format settings, CABAC                   : Yes
Format settings, ReFrames                : 3 frames
Codec ID                                 : V_MPEG4/ISO/AVC
Duration                                 : 3 min 40 s
Bit rate                                 : 1 560 kb/s
Width                                    : 1 280 pixels
Height                                   : 720 pixels
Display aspect ratio                     : 16:9
Frame rate mode                          : Constant
Frame rate                               : 23.976 (24000/1001) FPS
Color space                              : YUV
Chroma subsampling                       : 4:2:0
Bit depth                                : 8 bits
Scan type                                : Progressive
Bits/(Pixel*Frame)                       : 0.071
Stream size                              : 40.9 MiB (92%)
Default                                  : Yes
Forced                                   : No
Color range                              : Limited
Color primaries                          : BT.709
Transfer characteristics                 : BT.709
Matrix coefficients                      : BT.709

Audio
ID                                       : 2
Format                                   : AAC
Format/Info                              : Advanced Audio Codec
Format profile                           : LC
Codec ID                                 : A_AAC
Duration                                 : 3 min 40 s
Bit rate                                 : 126 kb/s
Channel(s)                               : 2 channels
Channel positions                        : Front: L R
Sampling rate                            : 44.1 kHz
Frame rate                               : 43.066 FPS (1024 spf)
Compression mode                         : Lossy
Stream size                              : 3.30 MiB (7%)
Default                                  : Yes
Forced                                   : No

Text
ID                                       : 3
Format                                   : ASS
Codec ID                                 : S_TEXT/ASS
Codec ID/Info                            : Advanced Sub Station Alpha
Duration                                 : 3 min 27 s
Bit rate                                 : 92 b/s
Count of elements                        : 45
Compression mode                         : Lossless
Stream size                              : 2.34 KiB (0%)
Title                                    : English
Default                                  : Yes
Forced                                   : Yes



Screen Shots








Download our other torrent for mp3 & m4a file of this song.
  Martin Garrix & Troye ...s + M4A~itunes-]


 









Category:Music > Videos
Lang:English  English
Total Size:44.31 MB
Info Hash:28aebd9c9082268b7086e8b595323ceeafb31526
Added By:pmedia
Date Added:27-05-2017 11:54:08
Views:565
Hits:135

Download Torrent

Ratings:Not Yet Rated (Log in to rate it)


Tracker:
http://explodie.org:6969/announce

This Torrent also has backup trackers
URLSeedersLeechersCompleted
http://explodie.org:6969/announce020
http://tracker.tfile.me/announce100
http://bigfoot1942.sektori.org:6969/announce000
http://bt1.archive.org:6969/announce000
http://bt2.archive.org:6969/announce000


File List: 


Comments

No comments still posted

Powered by 10 Hamsters v2-svn -|- Page Generated In 0.076098 secs.
-|- RSS FEED
Theme By: Nikkbu