[Login] or [Signup]
Login
Username:
Password:
[Signup]
[Recover Account]


Poll


You must be logged in to view polls



Torrent Details For "Aval (2017) [TAMIL - 720p - HDRip - x264 - AAC - ESubs (HC) - 2GB] - MAZE"

Aval (2017) [TAMIL - 720p - HDRip - x264 - AAC - ESubs (HC) - 2GB] - MAZE

Download this torrent | Magnet Download
Health:
Seeds: 0
Leechers: 2
Completed:
Last Checked: 14-09-2018 13:19:06
External Torrent
Update Stats
Download Magnet


Poster


Watch-Free-HD     Download

Details
Name:Aval (2017) [TAMIL - 720p - HDRip - x264 - AAC - ESubs (HC) - 2GB] - MAZE
Description:


Aval (2017) [TAMIL - 720p - HDRip - x264 - AAC - ESubs (HC) - 2GB] - MAZE

General
Unique ID                                : 201252475574885006875892230113133182172 (0x9767D120F5A69ED595414E5A66C1BCDC)
Complete name                            : Aval (2017) [720p - HDRip - x264 - AAC - ESubs (HC) - 2GB] - MAZE.mkv
Format                                   : Matroska
Format version                           : Version 4 / Version 2
File size                                : 2.01 GiB
Duration                                 : 2 h 13 min
Overall bit rate                         : 2 158 kb/s
Movie name                               : MAZE HDRelease
Encoded date                             : UTC 2017-11-25 14:22:17
Writing application                      : mkvmerge v17.0.0 ('Be Ur Friend') 64-bit
Writing library                          : libebml v1.3.5 + libmatroska v1.4.8
Attachments                              : aval.jpg

Video
ID                                       : 2
Format                                   : AVC
Format/Info                              : Advanced Video Codec
Format profile                           : [email protected]
Format settings                          : CABAC / 4 Ref Frames
Format settings, CABAC                   : Yes
Format settings, RefFrames               : 4 frames
Codec ID                                 : V_MPEG4/ISO/AVC
Duration                                 : 2 h 13 min
Bit rate                                 : 2 092 kb/s
Width                                    : 1 280 pixels
Height                                   : 564 pixels
Display aspect ratio                     : 2.25:1
Frame rate mode                          : Constant
Frame rate                               : 24.000 FPS
Color space                              : YUV
Chroma subsampling                       : 4:2:0
Bit depth                                : 8 bits
Scan type                                : Progressive
Bits/(Pixel*Frame)                       : 0.121
Stream size                              : 1.95 GiB (97%)
Title                                    : MAZE HDRelease
Writing library                          : x264 core 152 r2851 ba24899
Language                                 : Tamil
Default                                  : Yes
Forced                                   : No

Audio
ID                                       : 1
Format                                   : AAC
Format/Info                              : Advanced Audio Codec
Format profile                           : LC
Codec ID                                 : A_AAC-2
Duration                                 : 2 h 13 min
Bit rate                                 : 63.8 kb/s
Channel(s)                               : 2 channels
Channel positions                        : Front: L R
Sampling rate                            : 48.0 kHz
Frame rate                               : 46.875 FPS (1024 SPF)
Compression mode                         : Lossy
Stream size                              : 61.0 MiB (3%)
Title                                    : MAZE HDRelease
Language                                 : Tamil
Default                                  : Yes
Forced                                   : No


 
 
 
 
 
 
 
Category:Movies > HDRips
Lang:Tamil
Total Size:2.01 GB
Info Hash:7f3002b78a7354d6c22098f867508a1dda5c954a
Added By:raanathiran
Date Added:25-11-2017 15:41:12
Views:285
Hits:39

Download Torrent

Ratings:Not Yet Rated (Log in to rate it)


Tracker:
http://ipv4.tracker.harry.lu/announce

This Torrent also has backup trackers
URLSeedersLeechersCompleted
http://ipv4.tracker.harry.lu/announce000
http://ipv4.tracker.harry.lu:80/announce000
http://tracker.devil-torrents.pl:80/announce000
http://tracker.devil-torrents.pl/announce000
http://open.kickasstracker.com/announce000
http://open.kickasstracker.com:443/announce000
http://tracker.devil-torrents.pl/announce000


File List: 


Comments

No comments still posted

Powered by 10 Hamsters v2-svn -|- Page Generated In 2.242833 secs.
-|- RSS FEED
Theme By: Nikkbu