[Login] or [Signup]
Login
Username:
Password:
[Signup]
[Recover Account]


Poll


You must be logged in to view polls



Torrent Details For "The Big Fat City 2017 720p WEBRip x264"

The Big Fat City 2017 720p WEBRip x264

Download this torrent | Magnet Download
Health:
Seeds: 0
Leechers: 4
Completed:
Last Checked: 03-11-2018 12:44:35
External Torrent
Update Stats
Download Magnet


Poster


Watch-Free-HD     Download

Details
Name:The Big Fat City 2017 720p WEBRip x264
Description:



General
Format                                   : Matroska
Format version                           : Version 4 / Version 2
File size                                : 1.10 GiB
Duration                                 : 1 h 36 min
Overall bit rate                         : 1 625 kb/s

Video
ID                                       : 1
Format                                   : AVC
Format/Info                              : Advanced Video Codec
Format profile                           : [email protected]
Format settings                          : CABAC / 4 Ref Frames
Format settings, CABAC                   : Yes
Format settings, RefFrames               : 4 frames
Codec ID                                 : V_MPEG4/ISO/AVC
Duration                                 : 1 h 36 min
Bit rate                                 : 1 500 kb/s
Width                                    : 1 280 pixels
Height                                   : 720 pixels
Display aspect ratio                     : 16:9
Frame rate mode                          : Constant
Frame rate                               : 25.000 FPS
Color space                              : YUV
Chroma subsampling                       : 4:2:0
Bit depth                                : 8 bits
Scan type                                : Progressive
Bits/(Pixel*Frame)                       : 0.065
Stream size                              : 1.01 GiB (92%)
Writing library                          : x264 core 148 r2643 5c65704
Default                                  : Yes
Forced                                   : No

Audio
ID                                       : 2
Format                                   : AAC
Format/Info                              : Advanced Audio Codec
Format profile                           : LC
Codec ID                                 : A_AAC-2
Duration                                 : 1 h 36 min
Bit rate                                 : 128 kb/s
Channel(s)                               : 2 channels
Channel positions                        : Front: L R
Sampling rate                            : 44.1 kHz
Frame rate                               : 43.066 FPS (1024 SPF)
Compression mode                         : Lossy
Stream size                              : 88.7 MiB (8%)
Default                                  : Yes
Forced                                   : No














Category:Movies > Bollywood
Lang:Hindi
Total Size:1.10 GB
Info Hash:8b073952e3a1f6cefcfe05c1532298be8993fa4c
Added By:Freaky
Date Added:07-11-2017 08:07:29
Views:1,652
Hits:228

Download Torrent

Ratings:Not Yet Rated (Log in to rate it)


Tracker:
http://ipv4.tracker.harry.lu/announce

This Torrent also has backup trackers
URLSeedersLeechersCompleted
http://ipv4.tracker.harry.lu/announce5146186
http://ipv4.tracker.harry.lu:80/announce5146186
http://tracker.devil-torrents.pl:80/announce43440
http://tracker.devil-torrents.pl/announce43440
http://open.kickasstracker.com/announce46510
http://open.kickasstracker.com:443/announce46510
http://tracker.devil-torrents.pl/announce43440


File List: 


Comments

No comments still posted

Powered by 10 Hamsters v2-svn -|- Page Generated In 1.577731 secs.
-|- RSS FEED
Theme By: Nikkbu