[Login] or [Signup]
Login
Username:
Password:
[Signup]
[Recover Account]


Poll


You must be logged in to view polls



Torrent Details For "Aliens vs Titanic 2017 DVDRip x264 AAC"

Aliens vs Titanic 2017 DVDRip x264 AAC

Download this torrent | Magnet Download
Health:
Seeds: 0
Leechers: 4
Completed: 1,945 
Last Checked: 28-10-2018 14:31:07
External Torrent
Update Stats
Download Magnet


Poster


Watch-Free-HD     Download

Details
Name:Aliens vs Titanic 2017 DVDRip x264 AAC
Description:


General
Format                                   : Matroska
Format version                           : Version 4 / Version 2
File size                                : 746 MiB
Duration                                 : 1 h 21 min
Overall bit rate                         : 1 279 kb/s

Video
ID                                       : 1
Format                                   : AVC
Format/Info                              : Advanced Video Codec
Format profile                           : [email protected]
Format settings                          : CABAC / 4 Ref Frames
Format settings, CABAC                   : Yes
Format settings, RefFrames               : 4 frames
Codec ID                                 : V_MPEG4/ISO/AVC
Duration                                 : 1 h 21 min
Bit rate                                 : 1 200 kb/s
Width                                    : 720 pixels
Height                                   : 404 pixels
Display aspect ratio                     : 16:9
Frame rate mode                          : Constant
Frame rate                               : 25.000 FPS
Color space                              : YUV
Chroma subsampling                       : 4:2:0
Bit depth                                : 8 bits
Scan type                                : Progressive
Bits/(Pixel*Frame)                       : 0.165
Stream size                              : 689 MiB (92%)
Title                                    : Aliens vs Titanic 2017 DVDRip x264 AAC
Writing library                          : x264 core 148 r2643 5c65704
Encoding settings                        : cabac=1 / ref=3 / deblock=1:0:0 / analyse=0x3:0x113 / me=dia / subme=3 / psy=1 / psy_rd=1.00:0.00 / mixed_ref=1 / me_range=16 / chroma_me=1 / trellis=1 / 8x8dct=1 / cqm=0 / deadzone=21,11 / fast_pskip=1 / chroma_qp_offset=0 / threads=8 / lookahead_threads=2 / sliced_threads=0 / nr=0 / decimate=1 / interlaced=0 / bluray_compat=0 / constrained_intra=0 / bframes=3 / b_pyramid=2 / b_adapt=1 / b_bias=0 / direct=1 / weightb=1 / open_gop=0 / weightp=2 / keyint=250 / keyint_min=25 / scenecut=40 / intra_refresh=0 / rc_lookahead=40 / rc=abr / mbtree=1 / bitrate=1200 / ratetol=1.0 / qcomp=0.60 / qpmin=0 / qpmax=69 / qpstep=4 / ip_ratio=1.40 / aq=1:1.00
Default                                  : Yes
Forced                                   : No

Audio
ID                                       : 2
Format                                   : AAC
Format/Info                              : Advanced Audio Codec
Format profile                           : LC
Codec ID                                 : A_AAC-2
Duration                                 : 1 h 21 min
Bit rate                                 : 96.0 kb/s
Channel(s)                               : 2 channels
Channel positions                        : Front: L R
Sampling rate                            : 44.1 kHz
Frame rate                               : 43.066 FPS (1024 SPF)
Compression mode                         : Lossy
Stream size                              : 56.0 MiB (8%)
Language                                 : English
Default                                  : Yes
Forced                                   : No



 
 
 
 
 


Category:Movies > DVDRips
Lang:English  English
Total Size:745.80 MB
Info Hash:816d7c08ff9b41d670d3c78b5690e418ea81f30b
Added By:Freaky
Date Added:04-11-2017 11:52:41
Views:504
Hits:43

Download Torrent

Ratings:Not Yet Rated (Log in to rate it)


Tracker:
http://ipv4.tracker.harry.lu/announce

This Torrent also has backup trackers
URLSeedersLeechersCompleted
http://ipv4.tracker.harry.lu/announce12852653
http://ipv4.tracker.harry.lu:80/announce12852653
http://tracker.devil-torrents.pl:80/announce123440
http://tracker.devil-torrents.pl/announce123440
http://open.kickasstracker.com/announce130530
http://open.kickasstracker.com:443/announce130530
http://tracker.devil-torrents.pl/announce123440


File List: 


Comments

No comments still posted

Powered by 10 Hamsters v2-svn -|- Page Generated In 0.004300 secs.
-|- RSS FEED
Theme By: Nikkbu