[Login] or [Signup]
Login
Username:
Password:
[Signup]
[Recover Account]


Poll


You must be logged in to view polls



Torrent Details For "The.Ghazi.Attack.2017.1080p.WEB-DL.H263.DD5.1.ESub-DDR"

The.Ghazi.Attack.2017.1080p.WEB-DL.H263.DD5.1.ESub-DDR

Download this torrent | Magnet Download
Health:
Seeds: 0
Leechers: 3
Completed: 6,108 
Last Checked: 07-10-2018 08:54:57
External Torrent
Update Stats
Download Magnet


Poster


Watch-Free-HD     Download

Details
Name:The.Ghazi.Attack.2017.1080p.WEB-DL.H263.DD5.1.ESub-DDR
Description:
[B]~ The.Ghazi.Attack ~[/B]

[B]** 1080p / WEBHD / H.263 / DD5.1 / ESubs **[/B]


[B] Audio is downloaded and video is recorded in VBR mode which is lossless and subs only synced for my release. [/B]


[URL=" [/URL]" target="_blank" http://extraimage.net/image/2...e.md.jpg[/IMG][/URL]  
 Code:
General Complete name               : The.Ghazi.Attack.2017.1080p.WEB-DL.H263.DD5.1.ESub-DDR.mp4 Format                      : MPEG-4 Format profile              : Base Media Codec ID                    : isom (isom) File size                   : 5.95 GiB Duration                    : 2 h 2 min Overall bit rate mode       : Variable Overall bit rate            : 6 942 kb/s Encoded date                : UTC 2017-03-31 23:26:55 Tagged date                 : UTC 2017-03-31 23:26:55  Video ID                          : 1 Format                      : MPEG-4 Visual Format profile              : [email protected] Format settings, BVOP       : No Format settings, QPel       : No Format settings, GMC        : No warppoints Format settings, Matrix     : Default (H.263) Codec ID                    : 20 Duration                    : 2 h 2 min Bit rate mode               : Variable Bit rate                    : 6 300 kb/s Maximum bit rate            : 48.3 Mb/s Width                       : 1 920 pixels Height                      : 872 pixels Display aspect ratio        : 2.2:1 Original display aspect rat : 2.2:1 Frame rate mode             : Variable Frame rate                  : 23.976 (23976/1000) FPS Minimum frame rate          : 6.388 FPS Maximum frame rate          : 23.980 FPS Color space                 : YUV Chroma subsampling          : 4:2:0 Bit depth                   : 8 bits Scan type                   : Progressive Compression mode            : Lossy Bits/(Pixel*Frame)          : 0.157 Stream size                 : 5.40 GiB (91%) Writing library             : Lavc55.52.102 Tagged date                 : UTC 2017-03-31 23:30:14  Audio ID                          : 2 Format                      : E-AC-3 Format/Info                 : Enhanced Audio Coding 3 Format settings, Endianness : Big Codec ID                    : ec-3 Duration                    : 2 h 2 min Source duration             : 2 h 2 min Bit rate mode               : Constant Bit rate                    : 640 kb/s Maximum bit rate            : 676 kb/s Channel(s)                  : 6 channels Channel positions           : Front: L C R, Side: L R, LFE Sampling rate               : 48.0 kHz Frame rate                  : 187.500 FPS (256 spf) Bit depth                   : 16 bits Compression mode            : Lossy Language                    : Hindi Service kind                : Complete Main Default                     : Yes Alternate group             : 2 Tagged date                 : UTC 2017-03-31 23:30:14  Text ID                          : 3 Format                      : Timed Text Codec ID                    : tx3g Duration                    : 1 h 56 min Bit rate mode               : Variable Bit rate                    : 46 b/s Stream size                 : 39.4 KiB (0%) Language                    : English Forced                      : No Encoded date                : UTC 2017-03-31 23:30:14 Tagged date                 : UTC 2017-03-31 23:30:14

 




                   
Category:Movies > Bollywood
Lang:Hindi
Total Size:5.95 GB
Info Hash:1a3aef30c2b06ec0b104d0c916cf308be6f7e3f8
Added By:Unknown
Date Added:01-04-2017 12:21:17
Views:603
Hits:105

Download Torrent

Ratings:Not Yet Rated (Log in to rate it)


Tracker:
udp://tracker.coppersurfer.tk:6969/announce


File List: 


Comments

No comments still posted

Powered by 10 Hamsters v2-svn -|- Page Generated In 1.592212 secs.
-|- RSS FEED
Theme By: Nikkbu