[Login] or [Signup]
Login
Username:
Password:
[Signup]
[Recover Account]


Poll


You must be logged in to view polls



Torrent Details For "Dolphin Tale 2011 720p Esub BluRay Dual Audio English Hindi GOPISAHI"

Dolphin Tale 2011 720p Esub BluRay Dual Audio English Hindi GOPISAHI

Download this torrent | Magnet Download
Health:
Seeds: 0
Leechers: 3
Completed: 628 
Last Checked: 07-10-2018 17:08:55
External Torrent
Update Stats
Download Magnet


Poster


iMDB
Imdb Picture Original Title: Dolphin Tale
Title: L'incroyable histoire de Winter le dauphin
Year: 2011
Runtime: 113 minutes
Votes: 19175
Rating: 6.9/10
Language: English
Country: Canada, USA
All Genres: Drama, Family
Plot Outline: A story centered on the friendship between a boy and a dolphin whose tail was lost in a crab trap.
Tagline: Inspired by the amazing true story of Winter
Director: Charles Martin Smith
Writing By: Karen Janszen,Noam Dromi,
Produced By: Brad Arensman,Yolanda T. Cochran,Robert Engelman,Richard Ingber,Broderick Johnson,Andrew A. Kosove,Keith Melton,Carl Rogers,Steven P. Wegner,David Yates,
Music: Mark Isham
Cast:
Harry Connick Jr. as Dr. Clay Haskett
Ashley Judd as Lorraine Nelson
Nathan Gamble as Sawyer Nelson
Kris Kristofferson as Reed Haskett
Cozi Zuehlsdorff as Hazel Haskett
Morgan Freeman as Dr. Cameron McCarthy
Austin Stowell as Kyle Connellan
Frances Sternhagen as Gloria Forrest
Austin Highsmith as Phoebe
Betsy Landin as Kat
Trailers:
Dolphin Tale: Trailer #2
Dolphin Tale: Trailer #1


Watch-Free-HD     Download

Details
Name:Dolphin Tale 2011 720p Esub BluRay Dual Audio English Hindi GOPISAHI
Description:

Format                         : Matroska
Format version                 : Version 4 / Version 2
File size                      : 871 MiB
Duration                       : 1 h 52 min
Overall bit rate               : 1 081 kb/s
Movie name                     : Dolphin Tale 2011 GOPISAHI

Video
Format                         : AVC
Codec ID                       : V_MPEG4/ISO/AVC
Duration                       : 1 h 52 min
Bit rate                       : 905 kb/s
Width                          : 1 280 pixels
Height                         : 720 pixels
Display aspect ratio           : 16:9
Frame rate mode                : Constant
Frame rate                     : 23.976 (24000/1001) FPS
Stream size                    : 729 MiB (84%)
Writing library                : x264 core 116 r2074 2641b9e

Audio #1
Format                         : AAC
Duration                       : 1 h 52 min
Bit rate                       : 85.8 kb/s
Channel(s)                     : 6 channels
Channel positions              : Front: L C R, Side: L R, LFE
Sampling rate                  : 44.1 kHz
Frame rate                     : 43.066 FPS (1024 SPF)
Stream size                    : 69.2 MiB (8%)
Language                       : English

Audio #2
Format                         : AAC
Duration                       : 1 h 45 min
Bit rate                       : 96.0 kb/s
Channel(s)                     : 6 channels
Channel positions              : Front: L C R, Side: L R, LFE
Sampling rate                  : 44.1 kHz
Frame rate                     : 43.066 FPS (1024 SPF)
Stream size                    : 71.1 MiB (8%)
Language                       : Hindi

Text
Language                       : English


Category:Movies > Hollywood Dub
Lang:Hindi
Total Size:871.45 MB
Info Hash:6a901d6a72f5785e1d73be9d603337263aa10d09
Added By:gopisahi
Date Added:03-11-2017 14:58:12
Views:786
Hits:122

Download Torrent

Ratings:Not Yet Rated (Log in to rate it)


Tracker:
http://ipv4.tracker.harry.lu/announce

This Torrent also has backup trackers
URLSeedersLeechersCompleted
http://ipv4.tracker.harry.lu/announce3812048
http://ipv4.tracker.harry.lu:80/announce3812048
http://163.172.180.68:80/announce3812048
http://t.nyaatracker.com/announce2112934
http://tracker.devil-torrents.pl:80/announce201190
http://tracker.devil-torrents.pl/announce201190
http://open.kickasstracker.com/announce161400
http://163.172.180.68/announce3812048
http://t.nyaatracker.com:80/announce2112934
http://retracker.mgts.by:80/announce1511812
http://45.33.11.224/announce2112934
http://tracker.torrentyorg.pl:80/announce010
http://pt.lax.mx:80/announce2110812


File List: 


Comments

No comments still posted

Powered by 10 Hamsters v2-svn -|- Page Generated In 0.582822 secs.
-|- RSS FEED
Theme By: Nikkbu