[Login] or [Signup]
Login
Username:
Password:
[Signup]
[Recover Account]


Poll


You must be logged in to view polls



Torrent Details For "Race 2 2013 Hindi 720p Blu-Ray x264 DTS { TaRa }"

Race 2 2013 Hindi 720p Blu-Ray x264 DTS { TaRa }

Download this torrent | Magnet Download
Health:
Seeds: 1
Leechers: 2
Completed: 37 
Last Checked: 05-11-2018 14:43:30
External Torrent
Update Stats
Download Magnet


Poster


iMDB
Imdb Picture Title: Race 2
Year: 2013
Runtime: 150 minutes
Votes: 12696
Rating: 5.2/10
Language: Hindi
Country: India
All Genres: Action, Crime, Thriller
Plot Outline: Ranvir treads through the world of the Indian mafia in Turkey as he looks to avenge the death of his lover and partner in crime.
Tagline: Betrayal is survival.
Director: Abbas Alibhai Burmawalla
Mastan Alibhai Burmawalla
Writing By: Shiraz Ahmed,Kiran Kotrial,
Produced By: Jay Shewakramani,Kumar Sadhuram Taurani,Ramesh Sadhuram Taurani,
Music: Pritam Chakraborty
Cast:
Anil Kapoor as Inspector Robert D'Costa
Saif Ali Khan as Ranvir Singh
Jacqueline Fernandez as Omisha
Deepika Padukone as Alina
Ameesha Patel as Cherry
John Abraham as Armaan Mallik
Aditya Pancholi as Godfather
Rajesh Khattar as Vikram Thapar
Mohammed S. Burmawala as
Ilhan Kizilkaya as
Trailers:
Theatrical Version


Watch-Free-HD     Download

Details
Name:Race 2 2013 Hindi 720p Blu-Ray x264 DTS { TaRa }
Description:

Race 2 2013 Hindi 720p Blu-Ray x264 DTS { TaRa }.mkv



Quote:

===================================================================
General
Complete name               : Race 2 2013 Hindi 720p Blu-Ray x264 DTS { TaRa }.mkv
Format                      : Matroska
Format version              : Version 4 / Version 2
File size                   : 3.65 GiB
Duration                    : 2 h 25 min
Overall bit rate mode       : Variable
Overall bit rate            : 3 580 kb/s
===================================================================
Video
ID                          : 1
Format                      : AVC
Format/Info                 : Advanced Video Codec
Format profile              : [email protected]
Format settings, CABAC      : Yes
Format settings, ReFrames   : 3 frames
Codec ID                    : V_MPEG4/ISO/AVC
Duration                    : 2 h 25 min
Bit rate mode               : Variable
Bit rate                    : 2 552 kb/s
Maximum bit rate            : 14.0 Mb/s
Width                       : 1 280 pixels
Height                      : 544 pixels
Display aspect ratio        : 2.35:1
Frame rate mode             : Constant
Frame rate                  : 30.000 FPS
Color space                 : YUV
Chroma subsampling          : 4:2:0
Bit depth                   : 8 bits
Scan type                   : Progressive
Bits/(Pixel*Frame)          : 0.122
Stream size                 : 2.60 GiB (71%)
Title                       : .....::::: TaRa :::::.....
Language                    : Hindi
Default                     : Yes
Forced                      : No
===================================================================
Audio
ID                          : 2
Format                      : DTS
Format/Info                 : Digital Theater Systems
Mode                        : 16
Format settings, Endianness : Big
Codec ID                    : A_DTS
Duration                    : 2 h 25 min
Bit rate mode               : Constant
Bit rate                    : 1 025 kb/s
Channel(s)                  : 6 channels
Channel positions           : Front: L C R, Side: L R, LFE
Sampling rate               : 44.1 kHz
Frame rate                  : 86.133 FPS (512 spf)
Bit depth                   : 16 bits
Compression mode            : Lossy
Stream size                 : 1.04 GiB (29%)
Title                       : .....::::: TaRa :::::.....
Language                    : Hindi
Default                     : Yes
Forced                      : No
===================================================================



                                                           












 

Category:Movies > Bollywood
Lang:Hindi
Total Size:3.65 GB
Info Hash:68d38481468852cdad01d8aa3ccf5e8d1d040671
Added By:SkTaRa
Date Added:31-10-2017 11:12:25
Views:663
Hits:164

Download Torrent

Ratings:Not Yet Rated (Log in to rate it)

  


Tracker:
UDP://TRACKER.LEECHERS-PARADISE.ORG:6969/ANNOUNCE

This Torrent also has backup trackers
URLSeedersLeechersCompleted
http://ipv4.tracker.harry.lu:80/announce2400
http://t.nyaatracker.com/announce0350
http://t.nyaatracker.com:80/announce0350
http://tracker.electro-torrent.pl:80/announce2370
http://tracker.torrentyorg.pl:80/announce1137
http://pt.lax.mx:80/announce0350
http://fxtt.ru:80/announce010
http://retracker.mgts.by:80/announce2370
http://open.kickasstracker.com/announce3410
http://163.172.180.68/announce2400
http://82.209.230.66/announce2370
http://45.33.11.224/announce2390
http://195.88.220.21:80/announce2362
http://103.3.63.11:80/announce0350


File List: 


Comments

No comments still posted

Powered by 10 Hamsters v2-svn -|- Page Generated In 3.495035 secs.
-|- RSS FEED
Theme By: Nikkbu