[Login] or [Signup]
Login
Username:
Password:
[Signup]
[Recover Account]


Poll


You must be logged in to view polls



Torrent Details For "Geostorm 2017 English HDCAM 700MB H264 ACC [ Movies500 ]"

Geostorm 2017 English HDCAM 700MB H264 ACC [ Movies500 ]

Download this torrent | Magnet Download
Health:
Seeds: 0
Leechers: 8
Completed: 10,491 
Last Checked: 23-10-2018 00:38:30
External Torrent
Update Stats
Download Magnet


Poster


iMDB
Imdb Picture Title: Geostorm
Year: 2017
Runtime: 109 minutes
Votes: 6898
Rating: 5.9/10
Language: English
Country: USA
All Genres: Action, Sci-Fi, Thriller
Plot Outline: When the network of satellites designed to control the global climate starts to attack Earth, it's a race against the clock to uncover the real threat before a worldwide Geostorm wipes out everything and everyone.
Tagline: Surf's up...WAY up.
Director: Dean Devlin
Writing By: Dean Devlin,Paul Guyot,
Produced By: Chen On Chu,Dean Devlin,David Ellison,Herb Gains,Dana Goldberg,Don Granger,Cliff Lanning,Rachel Olschan,Marc Roskin,
Music: Lorne Balfe
Cast:
Gerard Butler as Jake Lawson
Jim Sturgess as Max Lawson
Abbie Cornish as Sarah Wilson
Alexandra Maria Lara as Ute Fassbinder
Daniel Wu as Cheng Long
Eugenio Derbez as Al Hernandez
Amr Waked as Ray Dussette
Adepero Oduye as Eni Adisa
Andy Garcia as President Andrew Palma
Ed Harris as Leonard Dekkom
Trailers:
Trailer
Trailer
Trailer #2
New International Trailer
Trailer #1


Watch-Free-HD     Download

Details
Name:Geostorm 2017 English HDCAM 700MB H264 ACC [ Movies500 ]
Description:



[size=16] http://movies500.me[/size]











Quote:

General
Unique ID                                : 196335147211980634982876671285949951723 (0x93B4C61F4D2F015DAA3278C985ACEEEB)
Complete name                            :Geostorm 2017 English www.movies500.me HDCAM 700MB X264 480p.mkv
Format                                   : Matroska
Format version                           : Version 4 / Version 2
File size                                : 701 MiB
Duration                                 : 1 h 41 min
Overall bit rate mode                    : Variable
Overall bit rate                         : 962 kb/s
Movie name                               : www.movies500.me
Encoded date                             : UTC 2017-10-24 16:46:05
Writing application                      : mkvmerge v10.0.0 ('To Drown In You') 64bit
Writing library                          : libebml v1.3.4 + libmatroska v1.4.5

Video
ID                                       : 1
Format                                   : AVC
Format/Info                              : Advanced Video Codec
Format profile                           : [email protected]
Format settings                          : CABAC / 4 Ref Frames
Format settings, CABAC                   : Yes
Format settings, RefFrames               : 4 frames
Codec ID                                 : V_MPEG4/ISO/AVC
Duration                                 : 1 h 41 min
Bit rate                                 : 866 kb/s
Width                                    : 720 pixels
Height                                   : 320 pixels
Display aspect ratio                     : 2.25:1
Frame rate mode                          : Constant
Frame rate                               : 29.970 (30000/1001) FPS
Color space                              : YUV
Chroma subsampling                       : 4:2:0
Bit depth                                : 8 bits
Scan type                                : Progressive
Bits/(Pixel*Frame)                       : 0.125
Stream size                              : 632 MiB (90%)
Title                                    : movies500.me
Writing library                          : x264 core 148 r2744 b97ae06
Language                                 : English
Default                                  : Yes
Forced                                   : No

Audio
ID                                       : 2
Format                                   : MPEG Audio
Format version                           : Version 1
Format profile                           : Layer 3
Format settings                          : Joint stereo / MS Stereo
Mode                                     : Joint stereo
Mode extension                           : MS Stereo
Codec ID                                 : A_MPEG/L3
Codec ID/Hint                            : MP3
Duration                                 : 1 h 41 min
Bit rate mode                            : Variable
Bit rate                                 : 96.0 kb/s
Channel(s)                               : 2 channels
Sampling rate                            : 44.1 kHz
Frame rate                               : 38.281 FPS (1152 SPF)
Compression mode                         : Lossy
Stream size                              : 67.9 MiB (10%)
Title                                    : movies500.me
Writing library                          : LAME3.99r
Encoding settings                        : -m j -V 4 -q 3 -lowpass 15.1 --abr 96
Language                                 : English
Default                                  : Yes
Forced                                   : No

Text
ID                                       : 3
Format                                   : ASS
Codec ID                                 : S_TEXT/ASS
Codec ID/Info                            : Advanced Sub Station Alpha
Bit rate                                 : 0 b/s
Count of elements                        : 0
Compression mode                         : Lossless
Stream size                              : 0.00 Byte (0%)
Title                                    : movies500.me
Default                                  : Yes
Forced                                   : No

Category:Movies > Pre-Releases
Lang:English  English
Total Size:701.25 MB
Info Hash:5d32949a05b9ea08f5ffd7b489933d43c96a5d34
Added By:faishkhan
Date Added:24-10-2017 18:05:50
Views:453
Hits:46

Download Torrent

Ratings:Not Yet Rated (Log in to rate it)


Tracker:
udp://tracker.openbittorrent.com:80/announce

This Torrent also has backup trackers
URLSeedersLeechersCompleted
http://ipv4.tracker.harry.lu/announce000
http://ipv4.tracker.harry.lu:80/announce3327280
http://opentracker-milanesi.rhcloud.com/announce000
http://t.nyaatracker.com/announce020
http://tracker.devil-torrents.pl:80/announce200
http://tracker.devil-torrents.pl/announce200
http://open.kickasstracker.com/announce44230
http://open.kickasstracker.com:443/announce44230
http://t.nyaatracker.com:80/announce020
http://retracker.mgts.by:80/announce05141
http://45.33.11.224/announce271916
http://tracker.torrentyorg.pl:80/announce0412
http://pt.lax.mx:80/announce2213175


File List: 


Comments

No comments still posted

Powered by 10 Hamsters v2-svn -|- Page Generated In 0.091150 secs.
-|- RSS FEED
Theme By: Nikkbu