[Login] or [Signup]
Login
Username:
Password:
[Signup]
[Recover Account]


Poll


You must be logged in to view polls



Torrent Details For "Nishabd (2007) [Hindi] 720p Web-HD AVC AAC Esub - Hon3y"

Nishabd (2007) [Hindi] 720p Web-HD AVC AAC Esub - Hon3y

Download this torrent | Magnet Download
Health:
Seeds: 0
Leechers: 1
Completed: 264 
Last Checked: 13-10-2018 23:36:17
External Torrent
Update Stats
Download Magnet


Poster


iMDB
Imdb Picture Title: Nishabd
Year: 2007
Runtime: 110 minutes
Votes: 1303
Rating: 5.5/10
Language: Hindi
Country: India
All Genres: Drama
Plot Outline: A man, who has been married for 27 years, falls in love with his 18-year-old daughter's friend.
Director: Ram Gopal Varma
Writing By: Kusum Punjabi,
Produced By: Sheel Nimbalkar,Ram Gopal Varma,
Music: Vishal Bhardwaj Amar Mohile
Plot:

Vijay lives a wealthy lifestyle in India along with his wife, Amrita, to who he has been married to for 27 years, and a daughter, Ritu, who is now 18 years of age. The family has a vast estate, where Vijay likes to trek around indulging in his sole passion - photography. Amrita, who was an accomplished Kuchipudi dancer, she even won two gold medals, gave up her passion to look after the family. This holiday, Ritu brought along a friend, Jia, to this household. Jia, quite childish, now lives with her divorcée mom in Brisbane, Australia, resents her lifestyle, especially after her mom started living with another man. When Rita sprains her ankle, both Vijay and Jia are thrown into each other's company. Amrita notices that Vijay suddenly starts singing to himself, then bursting into uncontrollable fits of laughter. Then all of a sudden, Ritu asks Jia to leave the household, but is prevented by Vijay. Things spiral out of control when Amrita's brother, Shridhar, arrives for a short visit, and finds out that Vijay and Jia have pledged their love for each other. Watch the impact this news has on Amrita.

- Written by rAjOo ([email protected])

A man, who has been married for 27 years, falls in love with his 18-year-old daughter's friend.

- Written by Rohit Mehta
Cast:
Amitabh Bachchan as Vijay
Jiah Khan as Jiah
Revathy as Amrita
Nassar as Shridhar
Shraddha Arya as Ritu
Aftab Shivdasani as Rishi


Watch-Free-HD     Download

Details
Name:Nishabd (2007) [Hindi] 720p Web-HD AVC AAC Esub - Hon3y
Description:
Nishabd (2007) [Hindi] 720p Web-HD AVC AAC Esub - Hon3y

Format                      : Matroska
File size                   : 2.16 GiB
Duration                    : 1 h 49 min
Overall bit rate            : 2 827 kb/s

Video
ID                          : 1
Format                      : AVC
Format/Info                 : Advanced Video Codec
Format profile              : [email protected]
Format settings, CABAC      : No
Format settings, ReFrames   : 1 frame
Codec ID                    : V_MPEG4/ISO/AVC
Duration                    : 1 h 49 min
Bit rate                    : 2 697 kb/s
Width                       : 1 280 pixels
Height                      : 566 pixels
Display aspect ratio        : 2.25:1
Frame rate mode             : Constant
Frame rate                  : 24.000 FPS
Stream size                 : 2.06 GiB (95%)

Audio
ID                          : 2
Format                      : AAC
Format/Info                 : Advanced Audio Codec
Format profile              : LC
Codec ID                    : A_AAC
Duration                    : 1 h 49 min
Bit rate                    : 128 kb/s
Channel(s)                  : 2 channels
Channel positions           : Front: L R
Sampling rate               : 44.1 kHz
Frame rate                  : 43.066 FPS (1024 spf)
Stream size                 : 99.6 MiB (5%)


               
Category:Movies > Bollywood
Lang:Hindi
Total Size:2.16 GB
Info Hash:bc2f70002323a3524ca99f2e260b20d93d441c95
Added By:Hon3y
Date Added:19-05-2017 18:54:11
Views:487
Hits:129

Download Torrent

Ratings:Not Yet Rated (Log in to rate it)


Tracker:
udp://tracker.coppersurfer.tk:6969/announce


File List: 


Comments

No comments still posted

Powered by 10 Hamsters v2-svn -|- Page Generated In 0.509549 secs.
-|- RSS FEED
Theme By: Nikkbu