[Login] or [Signup]
Login
Username:
Password:
[Signup]
[Recover Account]


Poll


You must be logged in to view polls



Torrent Details For "Resident Evil The Final Chapter 2016 BluRay 1080p x264 [Hindi-English] - Hon3y"

Resident Evil The Final Chapter 2016 BluRay 1080p x264 [Hindi-English] - Hon3y

Download this torrent | Magnet Download
Health:
Seeds: 0
Leechers: 5
Completed:
Last Checked: 05-11-2018 23:55:24
External Torrent
Update Stats
Download Magnet


Poster


iMDB
Imdb Picture Title: Resident Evil: The Final Chapter
Year: 2016
Runtime: 106 minutes
Votes: 42514
Rating: 5.6/10
Language: English
Country: USA, Germany, France, UK, Japan, Canada, South Africa, Australia
All Genres: Action, Horror, Sci-Fi, Thriller
Plot Outline: Alice returns to where the nightmare began: The Hive in Raccoon City, where the Umbrella Corporation is gathering its forces for a final strike against the only remaining survivors of the apocalypse.
Tagline: Everything has led to this.
Director: Paul W.S. Anderson
Writing By: Paul W.S. Anderson,
Produced By: Paul W.S. Anderson,Jeremy Bolt,Samuel Hadida,Victor Hadida,Genevieve Hofmeyr,Hiroyuki Kobayashi,Robert Kulzer,Martin Moszkowicz,Bernhard Thür,Janine van Assen,
Music: Paul Haslinger
Plot:

Picking up immediately after the events in Resident Evil: Retribution, Alice (Milla Jovovich) is the only survivor of what was meant to be humanity's final stand against the undead. Now, she must return to where the nightmare began - The Hive in Raccoon City, where the Umbrella Corporation is gathering its forces for a final strike against the only remaining survivors of the apocalypse.

- Written by Screen Gems / Constantin

Alice receives crucial information about the imminent elimination of the rest of humanity from an unlikely source and with the help of a few survivors embarks on a perilous journey to The Hive in Raccoon City to stop it, all the while fighting off infected creatures as well as agents of the Umbrella Corporation.

- Written by simonsaysulose

Alice returns to where the nightmare began: The Hive in Raccoon City, where the Umbrella Corporation is gathering its forces for a final strike against the only remaining survivors of the apocalypse.

- Written by Anonymous
Cast:
Milla Jovovich as Alice / Alicia Marcus
Iain Glen as Dr. Isaacs
Ali Larter as Claire Redfield
Shawn Roberts as Wesker
Eoin Macken as Doc
Fraser James as Razor
Ruby Rose as Abigail
William Levy as Christian
Rola as Cobalt
Ever Anderson as Young Alicia / Red Queen
Trailers:
International Trailer
Official Trailer
Trailer #1


Watch-Free-HD     Download

Details
Name:Resident Evil The Final Chapter 2016 BluRay 1080p x264 [Hindi-English] - Hon3y
Description:





Resident Evil The Final Chapter (2016) BluRay 1080p x264 Dual Audio [Hindi DD 2.0-English DD 5.1] ESubs...Hon3y {Exclusive}

Hindi Audio Credits Hon3yHD Own : Thanks To [email protected] Bro

Audio Sync By WeapoN X Bro Thanks

General
Format                                   : Matroska
Format version                           : Version 4 / Version 2
File size                                : 4.23 GiB
Duration                                 : 1 h 46 min
Overall bit rate                         : 5 674 kb/s
Movie name                               : Resident Evil The Final [email protected]

Video
Format                                   : AVC
Format/Info                              : Advanced Video Codec
Format profile                           : [email protected]
Format settings, CABAC                   : Yes
Format settings, ReFrames                : 5 frames
Codec ID                                 : V_MPEG4/ISO/AVC
Duration                                 : 1 h 46 min
Bit rate                                 : 4 968 kb/s
Width                                    : 1 920 pixels
Height                                   : 800 pixels
Display aspect ratio                     : 2.40:1
Frame rate mode                          : Constant
Frame rate                               : 23.976 (24000/1001) FPS
Color space                              : YUV
Chroma subsampling                       : 4:2:0
Bit depth                                : 8 bits
Scan type                                : Progressive
Bits/(Pixel*Frame)                       : 0.135
Stream size                              : 3.70 GiB (87%)
Title                                    : Resident Evil The Final [email protected]

Audio
Format                                   : AC-3
Format/Info                              : Audio Coding 3
Format settings, Endianness              : Big
Codec ID                                 : A_AC3
Duration                                 : 1 h 46 min
Bit rate mode                            : Constant
Bit rate                                 : 256 kb/s
Channel(s)                               : 2 channels
Channel positions                        : Front: L R
Sampling rate                            : 48.0 kHz
Frame rate                               : 31.250 FPS (1536 spf)
Bit depth                                : 16 bits
Compression mode                         : Lossy
Stream size                              : 195 MiB (5%)
Title                                    : [email protected]
Language                                 : Hindi
Service kind                             : Complete Main
Default                                  : Yes

Audio 2
Format                                   : AC-3
Format/Info                              : Audio Coding 3
Format settings, Endianness              : Big
Codec ID                                 : A_AC3
Duration                                 : 1 h 46 min
Bit rate mode                            : Constant
Bit rate                                 : 448 kb/s
Channel(s)                               : 6 channels
Channel positions                        : Front: L C R, Side: L R, LFE
Sampling rate                            : 48.0 kHz
Frame rate                               : 31.250 FPS (1536 spf)
Bit depth                                : 16 bits
Compression mode                         : Lossy
Stream size                              : 342 MiB (8%)
Title                                    : [email protected]
Language                                 : English
Service kind                             : Complete Main
Default                                  : No

Subtitle
Format                                   : PGS
Muxing mode                              : zlib
Codec ID                                 : S_HDMV/PGS
Codec ID/Info                            : Picture based subtitle format used on BDs/HD-DVDs
Duration                                 : 1 h 46 min
Bit rate                                 : 6 134 b/s
Count of elements                        : 1638
Stream size                              : 4.68 MiB (0%)
Title                                    : [email protected]
Language                                 : English
Default                                  : Yes

SubTitle SRT Format Included

Chapters Menu
00:00:00.000                             : en:00:00:00.000
00:05:39.673                             : en:00:05:39.673
00:11:18.177                             : en:00:11:18.177
00:17:00.102                             : en:00:17:00.102
00:22:36.146                             : en:00:22:36.146
00:27:21.932                             : en:00:27:21.932
00:33:38.475                             : en:00:33:38.475
00:40:47.612                             : en:00:40:47.612
00:46:36.127                             : en:00:46:36.127
00:53:18.779                             : en:00:53:18.779
01:03:18.670                             : en:01:03:18.670
01:10:47.869                             : en:01:10:47.869
01:15:37.575                             : en:01:15:37.575
01:22:57.806                             : en:01:22:57.806
01:28:32.891                             : en:01:28:32.891
01:35:07.452                             : en:01:35:07.452


                       


Category:Movies > Hollywood Dub
Lang:Hindi
Total Size:4.26 GB
Info Hash:8a7c447fb12357545d2ba72880ad5b9d12cf5c9c
Added By:Hon3y
Date Added:19-05-2017 16:36:33
Views:493
Hits:194

Download Torrent

Ratings:Not Yet Rated (Log in to rate it)


Tracker:
udp://tracker.coppersurfer.tk:6969/announce


File List: 


Comments

<< Previous      Next >>
1 - 3

[Report] Posted: 29-06-2017 at 16:20:16
Nomaan



Uploaded: 0.00 B
Downloaded: 0.00 B
Ratio: ---

Please Seed...

[Report] Posted: 03-07-2017 at 10:45:04
nick



Uploaded: 0.00 B
Downloaded: 0.00 B
Ratio: ---

plzz seeding

add tracker plzz hon3y
 :-(  :-(  :-(

[Report] Posted: 06-08-2017 at 19:18:04
Nomaan



Uploaded: 0.00 B
Downloaded: 0.00 B
Ratio: ---

Please Seed Buddy

1 - 3
<< Previous      Next >>


Powered by 10 Hamsters v2-svn -|- Page Generated In 0.839337 secs.
-|- RSS FEED
Theme By: Nikkbu