[Login] or [Signup]
Login
Username:
Password:
[Signup]
[Recover Account]


Poll


You must be logged in to view polls



Torrent Details For "Bhouri 2016 Hindi 720p Web-HD AVC AAC Esub - Hon3y [Exclusive]"

Bhouri 2016 Hindi 720p Web-HD AVC AAC Esub - Hon3y [Exclusive]

Download this torrent | Magnet Download
Health:
Seeds: 0
Leechers: 0
Completed:
Last Checked: 16-11-2018 07:50:14
External Torrent
Update Stats
Download Magnet


Poster


iMDB
Imdb Picture Title: Bhouri
Year: 2016
Runtime: 140 minutes
Votes: 10
Rating: 8.1/10
Language: Hindi
Country: India
All Genres: Drama
Plot Outline: A tragic love story of Bhouri, a 23-year old who is married to a 55-year old, the film highlights the exploitation of women in male dominated society.
Director: Jasbir Bhaati
Writing By: Kushal Ved Bakshi,Kushal Ved Bakshi,Jasbir Bhaati,Jasbir Bhaati,Manjeet Mahipal,Manjeet Mahipal,Jagat Bhushan Singh,Jagat Bhushan Singh,
Produced By: Rajan Ahuja,Chandrapal Singh,
Music: Sanjay Pathak
Plot:

A tragic love story of Bhouri, a 23-year old who is married to a 55-year old, the film highlights the exploitation of women in male dominated society.

- Written by vhavnal
Cast:
Manoj Joshi as
Mohan Joshi as
Shakti Kapoor as
Sitaram Panchal as
Aditya Pancholi as
Masha Pour as Bhouri
Kunickaa Sadanand as
Pooja Saxena as Malti
Mukesh Tiwari as
Raghuvir Yadav as


Watch-Free-HD     Download

Details
Name:Bhouri 2016 Hindi 720p Web-HD AVC AAC Esub - Hon3y [Exclusive]
Description:
Bhouri (2016) [Hindi] 720p Untouched Web-HD AVC AAC Esub - Hon3yHD [Exclusive]



Format                      : Matroska
File size                   : 2.78 GiB
Duration                    : 2 h 20 min
Overall bit rate            : 2 825 kb/s

Video
ID                          : 1
Format                      : AVC
Format/Info                 : Advanced Video Codec
Format profile              : [email protected]
Format settings, CABAC      : No
Format settings, ReFrames   : 1 frame
Codec ID                    : V_MPEG4/ISO/AVC
Duration                    : 2 h 20 min
Bit rate                    : 2 695 kb/s
Width                       : 1 280 pixels
Height                      : 544 pixels
Display aspect ratio        : 2.35:1
Frame rate mode             : Constant
Frame rate                  : 24.000 FPS
Stream size                 : 2.65 GiB (95%)

Audio
ID                          : 2
Format                      : AAC
Format/Info                 : Advanced Audio Codec
Format profile              : LC
Codec ID                    : A_AAC
Duration                    : 2 h 20 min
Bit rate                    : 128 kb/s
Channel(s)                  : 2 channels
Channel positions           : Front: L R
Sampling rate               : 44.1 kHz
Frame rate                  : 43.066 FPS (1024 spf)
Stream size                 : 129 MiB (5%)


                             
Category:Movies > Bollywood
Lang:Hindi
Total Size:2.78 GB
Info Hash:c19eab05b94d7d564203d5e4ee90cb0d339ce634
Added By:Hon3y
Date Added:19-05-2017 09:31:23
Views:326
Hits:110

Download Torrent

Ratings:Not Yet Rated (Log in to rate it)


Tracker:
udp://tracker.coppersurfer.tk:6969/announce


File List: 


Comments

No comments still posted

Powered by 10 Hamsters v2-svn -|- Page Generated In 1.017591 secs.
-|- RSS FEED
Theme By: Nikkbu