[Login] or [Signup]
Login
Username:
Password:
[Signup]
[Recover Account]


Poll


You must be logged in to view polls



Torrent Details For "Spielberg 2017 720p WEB-DL x264 AAC 2.0"

Spielberg 2017 720p WEB-DL x264 AAC 2.0

Download this torrent | Magnet Download
Health:
Seeds: 5
Leechers: 1
Completed: 493 
Last Checked: 13-11-2018 04:09:28
External Torrent
Update Stats
Download Magnet


Poster


Watch-Free-HD     Download

Details
Name:Spielberg 2017 720p WEB-DL x264 AAC 2.0
Description:


General
Format                                   : Matroska
Format version                           : Version 4 / Version 2
File size                                : 1.04 GiB
Duration                                 : 2 h 26 min
Overall bit rate                         : 1 017 kb/s
Movie name                               : Spielberg 2017 720p WEB-DL x264

Video
ID                                       : 1
Format                                   : AVC
Format/Info                              : Advanced Video Codec
Format profile                           : [email protected]
Format settings                          : CABAC / 4 Ref Frames
Format settings, CABAC                   : Yes
Format settings, RefFrames               : 4 frames
Codec ID                                 : V_MPEG4/ISO/AVC
Duration                                 : 2 h 26 min
Bit rate                                 : 900 kb/s
Width                                    : 1 280 pixels
Height                                   : 720 pixels
Display aspect ratio                     : 16:9
Frame rate mode                          : Constant
Frame rate                               : 23.976 (23976/1000) FPS
Color space                              : YUV
Chroma subsampling                       : 4:2:0
Bit depth                                : 8 bits
Scan type                                : Progressive
Bits/(Pixel*Frame)                       : 0.041
Stream size                              : 930 MiB (87%)
Default                                  : Yes
Forced                                   : No

Audio
ID                                       : 2
Format                                   : AAC
Format/Info                              : Advanced Audio Codec
Format profile                           : LC
Codec ID                                 : A_AAC-2
Duration                                 : 2 h 26 min
Bit rate                                 : 128 kb/s
Channel(s)                               : 2 channels
Channel positions                        : Front: L R
Sampling rate                            : 44.1 kHz
Frame rate                               : 43.066 FPS (1024 SPF)
Compression mode                         : Lossy
Stream size                              : 134 MiB (13%)
Language                                 : English
Default                                  : Yes
Forced                                   : No

Text
ID                                       : 3
Format                                   : UTF-8
Codec ID                                 : S_TEXT/UTF8
Codec ID/Info                            : UTF-8 Plain Text
Duration                                 : 2 h 23 min
Bit rate                                 : 106 b/s
Count of elements                        : 2837
Stream size                              : 112 KiB (0%)
Language                                 : English
Default                                  : No
Forced                                   : No


Source : Spielberg.2017.720p.AMZN.WEB-DL.DDP5.1.H.264-monkee[EtHD]










Category:Movies > HDRips
Lang:English  English
Total Size:1.04 GB
Info Hash:edbe59be01a0b1798608632624f71f42f42125db
Added By:Freaky
Date Added:09-10-2017 14:46:42
Views:285
Hits:47

Download Torrent

Ratings:Not Yet Rated (Log in to rate it)


Tracker:
http://ipv4.tracker.harry.lu/announce

This Torrent also has backup trackers
URLSeedersLeechersCompleted
http://ipv4.tracker.harry.lu/announce183927
http://ipv4.tracker.harry.lu:80/announce183927
http://opentracker-milanesi.rhcloud.com/announce000
http://t.nyaatracker.com/announce193230
http://tracker.devil-torrents.pl:80/announce24380
http://tracker.devil-torrents.pl/announce24380
http://open.kickasstracker.com/announce25510
http://opentracker-milanesi.rhcloud.com:80/announce000
http://open.kickasstracker.com:443/announce25510
http://opentracker-milanesi.rhcloud.com:443/announce000
http://t.nyaatracker.com:80/announce203132


File List: 


Comments

No comments still posted

Powered by 10 Hamsters v2-svn -|- Page Generated In 0.743743 secs.
-|- RSS FEED
Theme By: Nikkbu