[Login] or [Signup]
Login
Username:
Password:
[Signup]
[Recover Account]


Poll


You must be logged in to view polls



Torrent Details For "Eh Janam Tumhare Lekhe (2015) [Punjabi] 720p Web-HD AVC AAC Esub - Hon3y"

Eh Janam Tumhare Lekhe (2015) [Punjabi] 720p Web-HD AVC AAC Esub - Hon3y

Download this torrent | Magnet Download
Health:
Seeds: 0
Leechers: 2
Completed: 12 
Last Checked: 22-09-2018 23:26:15
External Torrent
Update Stats
Download Magnet


Poster


iMDB
Imdb Picture Title: Eh Janam Tumhare Lekhe
Year: 2015
Runtime: 135 minutes
Votes: 265
Rating: 8.7/10
Language: Panjabi
Country: India
All Genres: Biography
Plot Outline: Eh Janam Tumhare Lekhe ~ This life is dedicated to "YOU THE ALMIGHTY" (God). This film is a journey of one man "BHAGAT PURAN SINGH" who treaded a difficult and exhausting path. The journey ...
Director: Harjit Singh
Writing By: Tejinder Harjit,Harjeet Singh,
Produced By: All India Pingalwara Charitable Society,
Music: Gurmoh
Plot:

Eh Janam Tumhare Lekhe ~ This life is dedicated to "YOU THE ALMIGHTY" (God). This film is a journey of one man "BHAGAT PURAN SINGH" who treaded a difficult and exhausting path. The journey was made possible by his infinite faith in his mission: the moral values he received from his mother: and courage, vision and determination he received from Guru Granth Sahib. With compassion in his heart he found energy that can move mountains and create miracles. The film is an important chapter in the history of post - partition Punjab. A varied approach to meaningful events would carry great appeal and emotionally connect with the audience. The rich music score soaked in traditional punjabi sounds, Shabads, songs and the culturally rich rhythms emanate fresh waves of sound that the listeners will savour with delight. The tireless research done for the film makes it a very authentic and genuine attempt to recreate the life and the times of a penniless man who calls himself " a humble sweeper at the footsteps of Gods abode". He ferried an invalid for many years on his shoulders and over a span of time the burden of every helpless human became a garland around his neck. In his arduous journey he was joined by millions of altruistic human beings who supported his noble cause without knowing the sheer magnitude of the herculean task of the man who undertook it. The film is sure to draw the crowds for its honesty, sincerity, brilliant performances, music and a story everyone will relate with. It is an awe-inspiring journey of a human being who commits a lifetime to serving humanity and preserving the environment.


Cast:
Sudhanshu Aggarwal as
Arjuna Bhalla as
Avrinder Kaur as
Pavan Malhotra as
Master Yuvraj as


Watch-Free-HD     Download

Details
Name:Eh Janam Tumhare Lekhe (2015) [Punjabi] 720p Web-HD AVC AAC Esub - Hon3y
Description:
Eh Janam Tumhare Lekhe (2015) [Punjabi] 720p Web-HD AVC AAC Esub - Hon3y


Format                      : Matroska
File size                   : 2.47 GiB
Duration                    : 2 h 5 min
Overall bit rate            : 2 820 kb/s

Video
ID                          : 1
Format                      : AVC
Format/Info                 : Advanced Video Codec
Format profile              : [email protected]
Format settings, CABAC      : Yes
Format settings, ReFrames   : 3 frames
Codec ID                    : V_MPEG4/ISO/AVC
Duration                    : 2 h 5 min
Bit rate                    : 2 690 kb/s
Width                       : 1 280 pixels
Height                      : 546 pixels
Display aspect ratio        : 2.35:1
Frame rate mode             : Constant
Frame rate                  : 24.000 FPS
Stream size                 : 2.35 GiB (95%)

Audio
ID                          : 2
Format                      : AAC
Format/Info                 : Advanced Audio Codec
Format profile              : LC
Codec ID                    : A_AAC
Duration                    : 2 h 5 min
Bit rate                    : 128 kb/s
Channel(s)                  : 2 channels
Channel positions           : Front: L R
Sampling rate               : 44.1 kHz
Frame rate                  : 43.066 FPS (1024 spf)
Stream size                 : 114 MiB (5%)


                     
Category:Movies > Punjabi
Lang:Punjabi
Total Size:2.47 GB
Info Hash:e1fc7ac0b0b2dad2e68a903673a33fe34e7e7309
Added By:Hon3y
Date Added:16-05-2017 10:55:08
Views:782
Hits:161

Download Torrent

Ratings:Not Yet Rated (Log in to rate it)


Tracker:
udp://tracker.coppersurfer.tk:6969/announce


File List: 


Comments

No comments still posted

Powered by 10 Hamsters v2-svn -|- Page Generated In 0.633960 secs.
-|- RSS FEED
Theme By: Nikkbu