[Login] or [Signup]
Login
Username:
Password:
[Signup]
[Recover Account]


Poll


You must be logged in to view polls



Torrent Details For "Begum.Jaan.2017.1080p.WEB-DL.H263.AAC2.0.ESub-DDR"

Begum.Jaan.2017.1080p.WEB-DL.H263.AAC2.0.ESub-DDR

Download this torrent | Magnet Download
Health:
Seeds: 0
Leechers: 3
Completed:
Last Checked: 05-10-2018 07:50:38
External Torrent
Update Stats
Download Magnet


Poster


iMDB
Imdb Picture Title: Begum Jaan
Year: 2017
Runtime: 119 minutes
Votes: 105
Rating: 6.2/10
Language: Hindi
Country: India
All Genres: Action, Drama
Plot Outline: The story of eleven prostitutes who refuse to part ways with their brothel and each other during the partition between India and Pakistan.
Tagline: My body. My house. My country. My rules.
Director: Srijit Mukherji

Produced By: Mukesh Bhatt,Sakshi Bhatt,Vishesh Bhatt,
Plot:

The story of eleven prostitutes who refuse to part ways with their brothel and each other during the partition between India and Pakistan.

- Written by Anonymous
Cast:
Pallavi Sharda as Gulabo
Vidya Balan as Begum Jaan
Naseeruddin Shah as Rajaji
Gauhar Khan as Rubina
Chunky Pandey as Kabir
Priyanka Setia as Jameela
Rajesh Sharma as Shyam
Mishti as Shabnam
Pitobash as Surjeet
Ila Arun as Amma
Trailers:
Begum Jaan | Theatrical Trailer


Watch-Free-HD     Download

Details
Name:Begum.Jaan.2017.1080p.WEB-DL.H263.AAC2.0.ESub-DDR
Description:
General
Complete name               : Begum.Jaan.2017.1080p.WEB-DL.H263.AAC2.0.ESub-DDR.mp4
Format                      : MPEG-4
Format profile              : Base Media
Codec ID                    : isom (isom/iso2/mp41)
File size                   : 7.42 GiB
Duration                    : 2 h 6 min
Overall bit rate mode       : Variable
Overall bit rate            : 8 378 kb/s
Movie name                  : Begum Jaan (2017)
Performer                   : Action Drama
Director                    : Srijit Mukherji
Actor                       : Pallavi Sharda, Vidya Balan, Naseeruddin Shah
Screenplay by               : Srijit Mukherji, Kausar Munir, Sumair Malik
Producer                    : Mukesh Bhatt, Vishesh Bhatt
Production studio           : PLAY Entertainment
Genre                       : Action Drama
ContentType                 : Short Film
Recorded date               : 2017
Tagged date                 : UTC 2017-05-15 15:58:35
Writing application         : Lavf55.33.100
Cover                       : Yes
Lyrics                      : The story of eleven prostitutes who refuse to part ways with their brothel and each other during the partition between India and Pakistan.

Video
ID                          : 1
Format                      : MPEG-4 Visual
Format profile              : [email protected]
Format settings, BVOP       : No
Format settings, QPel       : No
Format settings, GMC        : No warppoints
Format settings, Matrix     : Default (H.263)
Codec ID                    : 20
Duration                    : 2 h 6 min
Bit rate mode               : Variable
Bit rate                    : 8 160 kb/s
Maximum bit rate            : 186 Mb/s
Width                       : 1 920 pixels
Height                      : 1 080 pixels
Display aspect ratio        : 16:9
Frame rate mode             : Variable
Frame rate                  : 23.976 (23976/1000) FPS
Minimum frame rate          : 10.183 FPS
Maximum frame rate          : 23.980 FPS
Color space                 : YUV
Chroma subsampling          : 4:2:0
Bit depth                   : 8 bits
Scan type                   : Progressive
Compression mode            : Lossy
Bits/(Pixel*Frame)          : 0.164
Stream size                 : 7.22 GiB (97%)
Writing library             : Lavc55.52.102

Audio
ID                          : 2
Format                      : AAC
Format/Info                 : Advanced Audio Codec
Format profile              : LC
Codec ID                    : 40
Duration                    : 2 h 6 min
Duration_LastFrame          : 21 ms
Bit rate mode               : Variable
Bit rate                    : 213 kb/s
Maximum bit rate            : 315 kb/s
Channel(s)                  : 2 channels
Channel positions           : Front: L R
Sampling rate               : 48.0 kHz
Frame rate                  : 46.875 FPS (1024 spf)
Compression mode            : Lossy
Stream size                 : 193 MiB (3%)
Default                     : Yes


Category:Movies > Bollywood
Lang:Hindi
Total Size:7.42 GB
Info Hash:7f31a435d54eb11d6a65fb20b5d278892a949a08
Added By:Sarawan
Date Added:15-05-2017 20:47:48
Views:543
Hits:133

Download Torrent

Ratings:Not Yet Rated (Log in to rate it)


Tracker:
udp://tracker.coppersurfer.tk:6969/announce


File List: 


Comments

No comments still posted

Powered by 10 Hamsters v2-svn -|- Page Generated In 1.587582 secs.
-|- RSS FEED
Theme By: Nikkbu