[Login] or [Signup]
Login
Username:
Password:
[Signup]
[Recover Account]


Poll


You must be logged in to view polls



Torrent Details For "Sahara.2017.1080p.WEBRip.DD5.1.x264-FGT-[HDSector]"

Sahara.2017.1080p.WEBRip.DD5.1.x264-FGT-[HDSector]

Download this torrent | Magnet Download
Health:
Seeds: 126
Leechers: 18
Completed: 363,993 
Last Checked: 19-09-2017 21:11:51
External Torrent
Update Stats
Download Magnet


Poster


iMDB
Imdb Picture Title: Sahara
Year: 2017
Runtime: 86 minutes
Votes: 51
Rating: 5.6/10
Country: France, Canada
All Genres: Animation, Adventure, Comedy, Family
Plot Outline: Two clans of snakes cohabit in the desert. Beautiful green serpents that live under the shelter of an oasis, protected and venerated by men and poisonous snakes that survive in the sand, ...
Director: Pierre Coré
Writing By: Pierre Coré,Nessim Debbiche,Stéphane Kazandjian,
Produced By: Eric Altmayer,Nicolas Altmayer,Michel Cortey,Pierre Coré,Claude Léger,Christian Ronget,Nicolas Trout,Jonathan Vanger,
Music: Jérôme Rebotier
Plot:

Two clans of snakes cohabit in the desert. Beautiful green serpents that live under the shelter of an oasis, protected and venerated by men and poisonous snakes that survive in the sand, dust and heat, hunted and killed by the Tuaregs. Here is the story of Ajar, a young poisonous serpent, laughed at by his peers because he still has not done his first moult and that of Eva, rebellious princess of the oasis who wants to escape to escape an arranged marriage. These two will meet and fall in love. Alas, Eva will be kidnapped by the Tuaregs and Ajar, accompanied by her best friend, Pitt the Scorpion, will have to cross the ruthless Sahara to save Eva from the terrible fate awaiting her.


Cast:
Omar Sy as Ajar
Louane Emera as Eva
Franck Gastambide as Pitt
Vincent Lacoste as Gary
Ramzy Bedia as Chef Chef
Clovis Cornillac as Ver Luisant
Jean Dujardin as Georges
Grand Corps Malade as Omar
Reem Kherici as Alexandrie
Jonathan Lambert as Michael


Watch-Free-HD     Download

Details
Name:Sahara.2017.1080p.WEBRip.DD5.1.x264-FGT-[HDSector]
Description:



Video
ID                                       : 1
Format                                   : AVC
Format/Info                              : Advanced Video Codec
Format profile                           : [email protected]
Format settings, CABAC                   : Yes
Format settings, ReFrames                : 5 frames
Codec ID                                 : V_MPEG4/ISO/AVC
Duration                                 : 1h 20mn
Bit rate                                 : 4 174 Kbps
Width                                    : 1 920 pixels
Height                                   : 800 pixels
Display aspect ratio                     : 2.40:1
Frame rate mode                          : Constant
Frame rate                               : 23.976 (24000/1001) fps
Color space                              : YUV
Chroma subsampling                       : 4:2:0
Bit depth                                : 8 bits
Scan type                                : Progressive
Bits/(Pixel*Frame)                       : 0.113
Stream size                              : 2.35 GiB (90%)
Title                                    : Sahara.2017.1080p.WEBRip.DD5.1.x264-FGT
Writing library                          : x264 core 148 r2762 90a61ec
Encoding settings                        : cabac=1 / ref=5 / deblock=1:-3:-3 / analyse=0x3:0x133 / me=umh / subme=8 / psy=1 / psy_rd=1.00:0.15 / mixed_ref=1 / me_range=16 / chroma_me=1 / trellis=1 / 8x8dct=1 / cqm=0 / deadzone=21,11 / fast_pskip=0 / chroma_qp_offset=-3 / threads=12 / lookahead_threads=2 / sliced_threads=0 / nr=0 / decimate=1 / interlaced=0 / bluray_compat=0 / constrained_intra=0 / bframes=3 / b_pyramid=2 / b_adapt=2 / b_bias=0 / direct=3 / weightb=1 / open_gop=0 / weightp=2 / keyint=240 / keyint_min=24 / scenecut=40 / intra_refresh=0 / rc_lookahead=50 / rc=crf / mbtree=1 / crf=19.0 / qcomp=0.60 / qpmin=0 / qpmax=69 / qpstep=4 / ip_ratio=1.40 / aq=1:1.00
Language                                 : English
Default                                  : Yes
Forced                                   : No

Audio
ID                                       : 2
Format                                   : AC-3
Format/Info                              : Audio Coding 3
Mode extension                           : CM (complete main)
Format settings, Endianness              : Big
Codec ID                                 : A_AC3
Duration                                 : 1h 20mn
Bit rate mode                            : Constant
Bit rate                                 : 384 Kbps
Channel(s)                               : 6 channels
Channel positions                        : Front: L C R, Side: L R, LFE
Sampling rate                            : 48.0 KHz
Frame rate                               : 31.250 fps (1536 spf)
Compression mode                         : Lossy
Stream size                              : 221 MiB (8%)
Title                                    : Sahara.2017.1080p.WEBRip.DD5.1.x264-FGT
Language                                 : English
Default                                  : Yes
Forced                                   : No

Text
ID                                       : 3
Format                                   : UTF-8
Codec ID                                 : S_TEXT/UTF8
Codec ID/Info                            : UTF-8 Plain Text
Language                                 : English
Default                                  : Yes
Forced                                   : No


 http://imdb.com/title/tt4466894/


 http://www.esportgaming.com/


 
 
 
 
 
 
Category:Movies > HDRips
Lang:English  English
Total Size:2.62 GB
Info Hash:d610bdc3c4656155e4ca5419d03b1d1c9909fa02
Added By:HDSector
Date Added:13-05-2017 15:41:28
Views:392
Hits:87

Download Torrent

Ratings:Not Yet Rated (Log in to rate it)


Tracker:
http://tracker.trackerfix.com:80/announce


File List: 


Comments

No comments still posted

Powered by 10 Hamsters v2-svn -|- Page Generated In 1.682292 secs.
-|- RSS FEED
Theme By: Nikkbu