[Login] or [Signup]
Login
Username:
Password:
[Signup]
[Recover Account]


Poll


You must be logged in to view polls



Torrent Details For "Devdas (2002) - 12mbps 1080p WEBHD (Lovepreet1) DUS"

Devdas (2002) - 12mbps 1080p WEBHD (Lovepreet1) DUS

Download this torrent | Magnet Download
Health:
Seeds: 0
Leechers: 0
Completed:
Last Checked: 06-09-2018 12:51:47
External Torrent
Update Stats
Download Magnet


Poster


iMDB
Imdb Picture Title: Devdas
Year: 2002
Runtime: 185 minutes
Votes: 29907
Rating: 7.6/10
Language: Hindi, Urdu, Bengali
Country: India
All Genres: Musical, Romance
Plot Outline: After his wealthy family prohibits him from marrying the woman he is in love with, Devdas Mukherjee's life spirals further and further out of control as he takes up alcohol and a life of vice to numb the pain.
Tagline: A grand saga of timeless love
Director: Sanjay Leela Bhansali
Writing By: Saratchandra Chatterjee,Prakash Kapadia,Sanjay Leela Bhansali,Prakash Kapadia,
Produced By: Gajendra Mishra,Mohan Nayyar,Bharat S. Shah,
Music: Ismail Darbar Monty Sharma
Cast:
Shah Rukh Khan as Devdas Mukherji
Madhuri Dixit as Chandramukhi
Aishwarya Rai Bachchan as Parvati ('Paro')
Jackie Shroff as Chunnilal
Kiron Kher as Sumitra
Smita Jaykar as Kaushalya
Tiku Talsania as Dharamdas
Vijayendra Ghatge as Bhuvan Choudhry
Milind Gunaji as Kalibabu
Ananya Khare as Kumud


Watch-Free-HD     Download

Details
Name:Devdas (2002) - 12mbps 1080p WEBHD (Lovepreet1) DUS
Description:
General
Complete name                            : Devdas (2002) - 12mbps 1080p WEBHD (Lovepreet1) DUS.mp4
Format                                   : MPEG-4
Format profile                           : Base Media
Codec ID                                 : isom (isom/iso2/avc1/mp41)
File size                                : 15.5 GiB
Duration                                 : 3 h 3 min
Overall bit rate mode                    : Variable
Overall bit rate                         : 12.2 Mb/s
Writing application                      : Lavf56.40.101

Video
ID                                       : 1
Format                                   : AVC
Format/Info                              : Advanced Video Codec
Format profile                           : [email protected]
Format settings, CABAC                   : Yes
Format settings, RefFrames               : 4 frames
Codec ID                                 : avc1
Codec ID/Info                            : Advanced Video Coding
Duration                                 : 3 h 3 min
Bit rate                                 : 12.0 Mb/s
Width                                    : 1 920 pixels
Height                                   : 816 pixels
Display aspect ratio                     : 2.35:1
Frame rate mode                          : Constant
Frame rate                               : 24.000 FPS
Color space                              : YUV
Chroma subsampling                       : 4:2:0
Bit depth                                : 8 bits
Scan type                                : Progressive
Bits/(Pixel*Frame)                       : 0.319
Stream size                              : 15.3 GiB (98%)
Writing library                          : x264 core 138

Audio
ID                                       : 2
Format                                   : AAC
Format/Info                              : Advanced Audio Codec
Format profile                           : LC
Codec ID                                 : 40
Duration                                 : 3 h 3 min
Bit rate mode                            : Variable
Bit rate                                 : 192 kb/s
Maximum bit rate                         : 194 kb/s
Channel(s)                               : 2 channels
Channel positions                        : Front: L R
Sampling rate                            : 48.0 kHz
Frame rate                               : 46.875 FPS (1024 SPF)
Compression mode                         : Lossy
Stream size                              : 251 MiB (2%)
Default                                  : Yes
Alternate group                          : 1


Category:Movies > Bollywood
Lang:Hindi
Total Size:15.55 GB
Info Hash:8b4664f61aac134d85098a1f93c44b6878ce9c98
Added By:B3BarG
Date Added:23-09-2017 15:25:20
Views:818
Hits:192

Download Torrent

Ratings:Not Yet Rated (Log in to rate it)


Tracker:
udp://tracker.coppersurfer.tk:6969/announce

This Torrent also has backup trackers
URLSeedersLeechersCompleted
http://ipv4.tracker.harry.lu/announce030
http://t.nyaatracker.com/announce030
http://t.nyaatracker.com:80/announce040
http://open.kickasstracker.com:443/announce030


File List: 


Comments

<< Previous      Next >>
1 - 4

[Report] Posted: 24-09-2017 at 05:26:00
wajidmallah



Uploaded: 0.00 B
Downloaded: 0.00 B
Ratio: ---

Bro Thanks For This
Pleas Ye Movies Bhi Upload Karo
Dil Ka Kya Kasoor 1080p [email protected]
Sirf Tum 1080p [email protected]
Aa Ab Laut Chalen 1080p [email protected]
Ao Pyar Karain 1080p [email protected]
Many Many Thanks Bro

:love  :love  :love  :love  :love  :love  :love  :love  :love  :love  :love  :love  :love  :love

[Report] Posted: 28-10-2017 at 20:55:44
jackal



Uploaded: 0.00 B
Downloaded: 0.00 B
Ratio: ---

someone plz seed.. just 4gb remaining... plz plz guys :-(  :-(  :-(

[Report] Posted: 30-10-2017 at 09:12:10
jackal



Uploaded: 0.00 B
Downloaded: 0.00 B
Ratio: ---


sombody please seed
sombody please seed
sombody please seed
sombody please seed
sombody please seed
sombody please seed
:-(  :-(  :-(  :-(  :-(  :-(
:-(  :-(  :-(  :-(  :-(  :-(  :-(


:-(  :-(  :-(  :-(  :-(  :-(  :-(  :-(  :-(

[Report] Posted: 09-11-2017 at 05:40:05
jackal



Uploaded: 0.00 B
Downloaded: 0.00 B
Ratio: ---

requesting you guys!!! someone please seed for atleast 2days.. :-(  :-(  :-(  :-(

just 3.5gb remaining. no peer is connected!
what to do??

1 - 4
<< Previous      Next >>


Powered by 10 Hamsters v2-svn -|- Page Generated In 1.468023 secs.
-|- RSS FEED
Theme By: Nikkbu