[Login] or [Signup]
Login
Username:
Password:
[Signup]
[Recover Account]


Poll


You must be logged in to view polls



Torrent Details For "Bhagam Bhaag 2009 [MARATHI] 1080p Untouched WebHD x264 AAC [TMB]"

Bhagam Bhaag 2009 [MARATHI] 1080p Untouched WebHD x264 AAC [TMB]

Download this torrent | Magnet Download
Health:
Seeds: 0
Leechers: 1
Completed:
Last Checked: 23-10-2018 21:47:48
External Torrent
Update Stats
Download Magnet


Poster


Watch-Free-HD     Download

Details
Name:Bhagam Bhaag 2009 [MARATHI] 1080p Untouched WebHD x264 AAC [TMB]
Description:
General
Complete name : Bhagam Bhaag 2009 1080p Untouched WebHD x264 AAC [TMB].mp4
Format : MPEG-4
Format profile : Base Media
Codec ID : isom (isom/iso2/avc1/mp41)
File size : 3.75 GiB
Duration : 1 h 57 min
Overall bit rate mode : Variable
Overall bit rate : 4 565 kb/s
Writing application : Lavf56.40.101

Video
Format : AVC
Format/Info : Advanced Video Codec
Format profile : [email protected]
Format settings, CABAC : Yes
Format settings, ReFrames : 1 frame
Format settings, GOP : M=1, N=25
Codec ID : avc1
Codec ID/Info : Advanced Video Coding
Duration : 1 h 57 min
Bit rate mode : Constant
Bit rate : 4 500 kb/s
Width : 1 920 pixels
Height : 1 080 pixels
Display aspect ratio : 16:9
Frame rate mode : Variable
Frame rate : 25.000 FPS
Minimum frame rate : 0.379 FPS
Maximum frame rate : 25.000 FPS
Color space : YUV
Chroma subsampling : 4:2:0
Bit depth : 8 bits
Scan type : Progressive
Bits/(Pixel*Frame) : 0.087
Stream size : 3.69 GiB (99%)

Audio
Format : AAC
Format/Info : Advanced Audio Codec
Format profile : LC
Codec ID : 40
Duration : 1 h 57 min
Bit rate mode : Variable
Bit rate : 61.4 kb/s
Maximum bit rate : 63.8 kb/s
Channel(s) : 2 channels
Channel positions : Front: L R
Sampling rate : 48.0 kHz
Frame rate : 46.875 FPS (1024 spf)
Compression mode : Lossy
Stream size : 51.6 MiB (1%)


Category:Movies > Bollywood
Lang:Hindi
Total Size:3.75 GB
Info Hash:27f52578271f047016ad7da44135475a65b38b46
Added By:Sarawan
Date Added:12-05-2017 16:31:51
Views:312
Hits:50

Download Torrent

Ratings:Not Yet Rated (Log in to rate it)


Tracker:
udp://tracker.openbittorrent.com:80/announce


File List: 


Comments

No comments still posted

Powered by 10 Hamsters v2-svn -|- Page Generated In 1.326860 secs.
-|- RSS FEED
Theme By: Nikkbu