[Login] or [Signup]
Login
Username:
Password:
[Signup]
[Recover Account]


Poll


You must be logged in to view polls



Torrent Details For "Pirates Of The Caribbean Dead Men Tell No Tales (2017) 720p BluRay x264 -Dual-Audio [Hin-Eng. A..."

Pirates Of The Caribbean Dead Men Tell No Tales (2017) 720p BluRay x264 -Dual-Audio [Hin-Eng. A...

Download this torrent | Magnet Download
Health:
Seeds: 0
Leechers: 1
Completed:
Last Checked: 21-09-2017 18:44:05
External Torrent
Update Stats
Download Magnet


Poster
No poster


Watch-Free-HD     Download

Details
Name:Pirates Of The Caribbean Dead Men Tell No Tales (2017) 720p BluRay x264 -Dual-Audio [Hin-Eng. A...
Description:


Pirates Of The Caribbean Dead Men Tell No Tales (2017) 720p BluRay x264 -Dual-Audio [Hin-Eng-AAC 5.1]


Video
ID                                       : 1
Format                                   : AVC
Format/Info                              : Advanced Video Codec
Format profile                           : [email protected]
Format settings, CABAC                   : Yes
Format settings, RefFrames               : 4 frames
Codec ID                                 : V_MPEG4/ISO/AVC
Duration                                 : 2 h 9 min
Bit rate                                 : 900 kb/s
Width                                    : 1 280 pixels
Height                                   : 534 pixels
Display aspect ratio                     : 2.40:1
Original display aspect ratio            : 2.40:1
Frame rate mode                          : Constant
Frame rate                               : 23.976 (24000/1001) FPS
Color space                              : YUV
Chroma subsampling                       : 4:2:0
Bit depth                                : 8 bits
Scan type                                : Progressive
Bits/(Pixel*Frame)                       : 0.055
Stream size                              : 831 MiB (75%)
Writing library                          : x264 core 148


Audio #1
ID                                       : 2
Format                                   : AAC
Format/Info                              : Advanced Audio Codec
Format profile                           : LC
Codec ID                                 : A_AAC
Duration                                 : 2 h 9 min
Bit rate                                 : 132 kb/s
Channel(s)                               : 2 channels
Channel positions                        : Front: L R
Sampling rate                            : 48.0 kHz
Frame rate                               : 46.875 FPS (1024 SPF)
Compression mode                         : Lossy
Delay relative to video                  : -43 ms
Language                                 : English
Default                                  : Yes


Audio #2
Format                                   : AAC
Format/Info                              : Advanced Audio Codec
Format profile                           : LC
Codec ID                                 : A_AAC
Duration                                 : 2 h 9 min
Bit rate                                 : 160 kb/s
Channel(s)                               : 2 channels
Channel positions                        : Front: L R
Sampling rate                            : 48.0 kHz
Frame rate                               : 46.875 FPS (1024 SPF)
Compression mode                         : Lossy
Delay relative to video                  : -10 ms
Stream size                              : 148 MiB (13%)
Language                                 : Hindi
Default                                  : Yes









Category:Movies > Hollywood Dub
Lang:Hindi
Total Size:1.08 GB
Info Hash:2052f63c1890a71333b7cde9ff5fbd7f1d43ce12
Added By:Movie10
Date Added:21-09-2017 07:50:01
Views:338
Hits:95

Download Torrent

Ratings:Not Yet Rated (Log in to rate it)


Tracker:
udp://tracker.coppersurfer.tk:6969/announce


File List: 


Comments

No comments still posted

Powered by 10 Hamsters v2-svn -|- Page Generated In 0.540604 secs.
-|- RSS FEED
Theme By: Nikkbu