[Login] or [Signup]
Login
Username:
Password:
[Signup]
[Recover Account]


Poll


You must be logged in to view polls



Torrent Details For "Transformers The Last Knight 2017 1080p HDRip x264 AAC ESub - Hon3y"

Transformers The Last Knight 2017 1080p HDRip x264 AAC ESub - Hon3y

Download this torrent | Magnet Download
Health:
Seeds: 0
Leechers: 9
Completed: 34,292 
Last Checked: 16-11-2018 07:05:18
External Torrent
Update Stats
Download Magnet


Poster


iMDB
Imdb Picture Title: Transformers: The Last Knight
Year: 2017
Runtime: 149 minutes
Votes: 12391
Rating: 5.3/10
Language: English
Country: USA
All Genres: Action, Adventure, Sci-Fi, Thriller
Plot Outline: Humans and Transformers are at war, Optimus Prime is gone. The key to saving our future lies buried in the secrets of the past, in the hidden history of Transformers on Earth.
Tagline: There comes a moment when we are called upon to make a difference.
Director: Michael Bay
Writing By: Art Marcum,Matt Holloway,Ken Nolan,Akiva Goldsman,Art Marcum,Matt Holloway,Ken Nolan,
Produced By: Michael Bay,Ian Bryce,Matthew Cohan,Tom DeSanto,Lorenzo di Bonaventura,Brian Goldner,Daren Hicks,K.C. Hodenfield,J.J. Hook,Harry Humphries,Michael Kase,Don Murphy,Steven Spielberg,Mark Vahradian,
Music: Steve Jablonsky
Plot:

Optimus Prime finds his dead home planet, Cybertron, in which he comes to find he was responsible for its destruction. He finds a way to bring Cybertron back to life, but in order to do so, Optimus needs to find an artifact that is on Earth.

Humans and Transformers are at war, Optimus Prime is gone. The key to saving our future lies buried in the secrets of the past, in the hidden history of Transformers on Earth. Saving our world falls upon the shoulders of an unlikely alliance: Cade Yeager, Bumblebee, an English Lord, and an Oxford Professor.

Humans and Transformers are at war, Optimus Prime is gone. The key to saving our future lies buried in the secrets of the past, in the hidden history of Transformers on Earth.

- Written by Anonymous
Cast:
Mark Wahlberg as Cade Yeager
Anthony Hopkins as Sir Edmund Burton
Josh Duhamel as Colonel William Lennox
Laura Haddock as Vivian Wembley
Santiago Cabrera as Santos
Isabela Moner as Izabella
Jerrod Carmichael as Jimmy
Stanley Tucci as Merlin
Liam Garrigan as Arthur
Martin McCreadie as Lancelot
Trailers:
International Trailer
Official Trailer
Extended Super Bowl Spot
Super Bowl LI Spot
Trailer #1


Watch-Free-HD     Download

Details
Name:Transformers The Last Knight 2017 1080p HDRip x264 AAC ESub - Hon3y
Description:
Transformers The Last Knight 2017 1080p HDRip x264 AAC ESub - Hon3y

Format                      : Matroska
Format version              : Version 4 / Version 2
File size                   : 3.56 GiB
Duration                    : 2 h 34 min
Overall bit rate            : 3 299 kb/s
Movie name                  : Transformers The Last Knight 2017-Hon3y


Video
ID                          : 1
Format                      : AVC
Format/Info                 : Advanced Video Codec
Format profile              : [email protected]
Format settings, CABAC      : Yes
Format settings, RefFrames  : 4 frames
Codec ID                    : V_MPEG4/ISO/AVC
Duration                    : 2 h 34 min
Bit rate                    : 2 914 kb/s
Width                       : 1 920 pixels
Height                      : 1 010 pixels
Display aspect ratio        : 1.901
Frame rate mode             : Constant
Frame rate                  : 23.976 (24000/1001) FPS
Color space                 : YUV


Audio
ID                          : 3
Format                      : AC-3
Format/Info                 : Audio Coding 3
Format settings, Endianness : Big
Codec ID                    : A_AC3
Duration                    : 2 h 34 min
Bit rate mode               : Constant
Bit rate                    : 384 kb/s
Channel(s)                  : 6 channels
Channel positions           : Front: L C R, Side: L R, LFE
Sampling rate               : 48.0 kHz
Frame rate                  : 31.250 FPS (1536 SPF)
Bit depth                   : 16 bits
Compression mode            : Lossy
Stream size                 : 424 MiB (12%)
Language                    : English
Service kind                : Complete Main
Default                     : Yes
Forced                      : No

Text
ID                          : 2
Format                      : UTF-8
Codec ID                    : S_TEXT/UTF8
Codec ID/Info               : UTF-8 Plain Text
Duration                    : 2 h 24 min
Bit rate                    : 66 b/s
Count of elements           : 2216
Stream size                 : 70.5 KiB (0%)
Language                    : English
Default                     : Yes
Forced                      : No

Menu
00:00:00.000                : en:1
00:06:34.000                : en:2
00:14:01.000                : en:3
00:21:43.000                : en:4
00:27:50.000                : en:5
00:33:36.000                : en:6
00:39:58.000                : en:7
00:46:48.000                : en:8
00:53:14.000                : en:9
01:01:51.000                : en:10
01:08:35.000                : en:11
01:14:25.000                : en:12
01:19:57.000                : en:13
01:29:00.000                : en:14
01:37:45.000                : en:15
01:44:43.000                : en:16
01:51:01.000                : en:17
01:57:44.000                : en:18
02:05:54.000                : en:19
02:10:38.000                : en:20
02:15:45.000                : en:21
02:21:26.000                : en:22
02:25:00.000                : en:23


             
Category:Movies > HDRips
Lang:English  English
Total Size:3.58 GB
Info Hash:6b875fa969e5f95a7610ce87c3717fe067b6d309
Added By:Hon3y
Date Added:12-09-2017 19:03:29
Views:249
Hits:62

Download Torrent

Ratings:Not Yet Rated (Log in to rate it)


Tracker:
udp://tracker.coppersurfer.tk:6969/announce


File List: 


Comments

No comments still posted

Powered by 10 Hamsters v2-svn -|- Page Generated In 0.436004 secs.
-|- RSS FEED
Theme By: Nikkbu