[Login] or [Signup]
Login
Username:
Password:
[Signup]
[Recover Account]


Poll


You must be logged in to view polls



Torrent Details For "Anaarkali.of.Aarah.2017.Hindi.1080p.WEB-DL.x264.AAC.-.Hon3y"

Anaarkali.of.Aarah.2017.Hindi.1080p.WEB-DL.x264.AAC.-.Hon3y

Download this torrent | Magnet Download
Health:
Seeds: 0
Leechers: 5
Completed:
Last Checked: 28-07-2018 15:53:20
External Torrent
Update Stats
Download Magnet


Poster


iMDB
Imdb Picture Title: Anaarkali of Aarah
Year: 2017
Runtime: 113 minutes
Votes: 255
Rating: 6.9/10
Language: Hindi
Country: India
All Genres: Drama
Plot Outline: A village dancer is harassed by a local politician and is ridiculed by the police, but ends up plotting revenge to clear her name.
Director: Avinash Das
Writing By: Avinash Das,
Produced By: Sandip Kapur,Mohammad Mubashshir,
Music: Rohit Sharma
Plot:

Anaarkali (Swara Bhaskar) is an orchestra singer in South Bihar's Arrah. She is poor, sings double meaning lyrics and is treated as a sex worker. Dharmendra Chauhan (Sanjay Mishra), the Vice Chancellor of a prestigious university, is one of her many admirers. He molests Anaarkali in an inebriated state during a show and a war breaks out between the two. While Anaarkali wants justice for her ordeal, the system thinks it's the most natural accident that somebody like Anaarkali could meet.

- Written by subratjain1

Anarkali of Arrah' is the story of an erotic singer played by Swara Bhaskar who hails from Arrah in Bihar and is popular for her songs that make you read between the lines. She is the star performer of her troupe and is confident of her success. However, her life takes a twist when she has a confrontation with a very powerful man of the region, followed by a serious conflict.

- Written by Mohit SirOhi

A village dancer is harassed by a local politician and is ridiculed by the police, but ends up plotting revenge to clear her name.


Cast:
Swara Bhaskar as Anarkali
Sanjay Mishra as VC
Pankaj Tripathy as Rangeela
Mayur More as Anwar
Ishtiyak Khan as Hiraman


Watch-Free-HD     Download

Details
Name:Anaarkali.of.Aarah.2017.Hindi.1080p.WEB-DL.x264.AAC.-.Hon3y
Description:
Format                      : Matroska
Format version              : Version 4 / Version 2
File size                   : 3.91 GiB
Duration                    : 1 h 38 min
Overall bit rate            : 5 672 kb/s
Movie name                  : www.esportgaming.com

Video
ID                          : 1
Format                      : AVC
Format/Info                 : Advanced Video Codec
Format profile              : [email protected]
Format settings, CABAC      : Yes
Format settings, RefFrames  : 1 frame
Format settings, GOP        : M=1, N=25
Codec ID                    : V_MPEG4/ISO/AVC
Duration                    : 1 h 38 min
Bit rate mode               : Constant
Bit rate                    : 5 543 kb/s
Nominal bit rate            : 6 000 kb/s
Width                       : 1 920 pixels
Height                      : 1 080 pixels
Display aspect ratio        : 16:9
Frame rate mode             : Constant
Frame rate                  : 25.000 FPS
Color space                 : YUV
Chroma subsampling          : 4:2:0
Bit depth                   : 8 bits
Scan type                   : Progressive
Bits/(Pixel*Frame)          : 0.107
Stream size                 : 3.82 GiB (98%)
Title                       : www.esportgaming.com

Audio
ID                          : 2
Format                      : AAC
Format/Info                 : Advanced Audio Codec
Format profile              : LC
Codec ID                    : A_AAC
Duration                    : 1 h 38 min
Bit rate                    : 125 kb/s
Channel(s)                  : 2 channels
Channel positions           : Front: L R
Sampling rate               : 48.0 kHz
Frame rate                  : 46.875 FPS (1024 SPF)
Compression mode            : Lossy
Stream size                 : 88.5 MiB (2%)
Title                       : www.esportgaming.com

           
Category:Movies > Bollywood
Lang:Hindi
Total Size:3.91 GB
Info Hash:d8e7e43e1c67b8c38a4a3bb4626fbe02e635fd21
Added By:Hon3y
Date Added:07-09-2017 10:32:11
Views:704
Hits:128

Download Torrent

Ratings:Not Yet Rated (Log in to rate it)


Tracker:
http://ipv4.tracker.harry.lu/announce

This Torrent also has backup trackers
URLSeedersLeechersCompleted
http://ipv4.tracker.harry.lu/announce8418
http://ipv4.tracker.harry.lu:80/announce8418
http://opentracker-milanesi.rhcloud.com/announce000
http://t.nyaatracker.com/announce010
http://tracker.devil-torrents.pl:80/announce5500
http://tracker.devil-torrents.pl/announce5500
http://open.kickasstracker.com/announce7540
http://opentracker-milanesi.rhcloud.com:80/announce000
http://open.kickasstracker.com:443/announce7540
http://opentracker-milanesi.rhcloud.com:443/announce7470
http://t.nyaatracker.com:80/announce010


File List: 


Comments

<< Previous      Next >>
1 - 1

[Report] Posted: 07-09-2017 at 10:55:21
Rinshadkt



Uploaded: 0.00 B
Downloaded: 0.00 B
Ratio: ---

:D

1 - 1
<< Previous      Next >>


Powered by 10 Hamsters v2-svn -|- Page Generated In 1.603193 secs.
-|- RSS FEED
Theme By: Nikkbu