[Login] or [Signup]
Login
Username:
Password:
[Signup]
[Recover Account]


Poll


You must be logged in to view polls



Torrent Details For "All.Nighter.2017.1080p.BluRay.x264.DTS-FGT-[HDSector]"

All.Nighter.2017.1080p.BluRay.x264.DTS-FGT-[HDSector]

Download this torrent | Magnet Download
Health:
Seeds: 0
Leechers: 4
Completed:
Last Checked: 14-11-2018 08:26:00
External Torrent
Update Stats
Download Magnet


Poster


iMDB
Imdb Picture Title: All Nighter
Year: 2017
Runtime: 86 minutes
Votes: 1746
Rating: 5.6/10
Language: English
Country: USA
All Genres: Comedy
Plot Outline: A workaholic father who attempts to visit his daughter during a layover in LA, only to discover that she's disappeared, is forced to team up with her awkward ex-boyfriend to find her over the course of one transformative night.
Tagline: The fastest way to get over an ex? Stay up all night with her dad!
Director: Gavin Wiesen
Writing By: Seth W. Owen,
Produced By: David Beal,Toddy Burton,Josh Crook,Randy Crook,P. Jennifer Dana,Adi Ezroni,Tiffany Hallgren,Sarah E. Johnson,Erik Kritzer,Jill Maxcy,Ishay Mor,Tim Nye,Dominic Ottersbach,George Paaswell,Ron Perlman,Burton Ritchie,Gregory Segal,Mandy Tagger,Brian Wilkins,
Music: Alec Puro
Plot:

Six months after that awkward introductory dinner with the tough and workaholic father of his girlfriend Ginnie, Martin, a talented but broke banjo musician, finds Mr Gallo knocking on his door looking for his daughter. Still heartbroken after breaking up with Ginnie, single and clueless, Martin will have no other choice but to hit the road and form an improbable search party with his ex-father-in-law, in an all-night adventure all over west Hollywood. Eventually, by the end of the night, the team will learn how to leave the past behind, move on, and most importantly, open their eyes and live. Nevertheless, where could Ginnie be?

- Written by Nick Riganas

A workaholic father who attempts to visit his daughter during a layover in LA, only to discover that she's disappeared, is forced to team up with her awkward ex-boyfriend to find her over the course of one transformative night.


Cast:
Analeigh Tipton as Ginnie
Emile Hirsch as Martin
J.K. Simmons as Mr. Gallo
Meta Golding as Kelly
Jon Daly as Jimothy
Taran Killam as Gary
Kristen Schaal as Roberta
Stephanie Allynne as Tracy
Rebecca Drysdale as Lizzie
Connor Barrett as Dean the Waiter
Trailers:
Official Trailer


Watch-Free-HD     Download

Details
Name:All.Nighter.2017.1080p.BluRay.x264.DTS-FGT-[HDSector]
Description:


 http://imdb.com/title/tt4662420/


Video
ID                                       : 1
Format                                   : AVC
Format/Info                              : Advanced Video Codec
Format profile                           : [email protected]
Format settings, CABAC                   : Yes
Format settings, ReFrames                : 5 frames
Codec ID                                 : V_MPEG4/ISO/AVC
Duration                                 : 1h 25mn
Bit rate                                 : 12.4 Mbps
Width                                    : 1 918 pixels
Height                                   : 792 pixels
Display aspect ratio                     : 2.40:1
Frame rate mode                          : Constant
Frame rate                               : 23.976 (24000/1001) fps
Color space                              : YUV
Chroma subsampling                       : 4:2:0
Bit depth                                : 8 bits
Scan type                                : Progressive
Bits/(Pixel*Frame)                       : 0.341
Stream size                              : 7.45 GiB (87%)
Writing library                          : x264 core 148 r2699 a5e06b9
Encoding settings                        : cabac=1 / ref=5 / deblock=1:-3:-3 / analyse=0x3:0x113 / me=umh / subme=11 / psy=1 / psy_rd=1.00:0.00 / mixed_ref=1 / me_range=48 / chroma_me=1 / trellis=2 / 8x8dct=1 / cqm=0 / deadzone=21,11 / fast_pskip=1 / chroma_qp_offset=-2 / threads=12 / lookahead_threads=3 / sliced_threads=0 / nr=0 / decimate=0 / interlaced=0 / bluray_compat=0 / constrained_intra=0 / bframes=16 / b_pyramid=2 / b_adapt=2 / b_bias=0 / direct=3 / weightb=1 / open_gop=0 / weightp=2 / keyint=240 / keyint_min=24 / scenecut=40 / intra_refresh=0 / rc=crf / mbtree=0 / crf=17.0 / qcomp=0.62 / qpmin=0 / qpmax=69 / qpstep=4 / ip_ratio=1.36 / pb_ratio=1.20 / aq=3:0.76
Language                                 : English
Default                                  : Yes
Forced                                   : No
Color range                              : Limited
Color primaries                          : BT.709
Transfer characteristics                 : BT.709
Matrix coefficients                      : BT.709

Audio
ID                                       : 2
Format                                   : DTS
Format/Info                              : Digital Theater Systems
Mode                                     : 16
Format settings, Endianness              : Big
Codec ID                                 : A_DTS
Duration                                 : 1h 25mn
Bit rate mode                            : Constant
Bit rate                                 : 1 509 Kbps
Channel(s)                               : 6 channels
Channel positions                        : Front: L C R, Side: L R, LFE
Sampling rate                            : 48.0 KHz
Frame rate                               : 93.750 fps (512 spf)
Bit depth                                : 24 bits
Compression mode                         : Lossy
Delay relative to video                  : -83ms
Stream size                              : 927 MiB (11%)
Title                                    : Original
Language                                 : English
Default                                  : No
Forced                                   : No

Text
ID                                       : 3
Format                                   : UTF-8
Codec ID                                 : S_TEXT/UTF8
Codec ID/Info                            : UTF-8 Plain Text
Language                                 : English
Default                                  : Yes
Forced                                   : No

Menu
00:00:00.000                             : en: Chapter 1
00:12:17.237                             : en: Chapter 2
00:24:11.450                             : en: Chapter 3
00:34:18.390                             : en: Chapter 4
00:48:01.128                             : en: Chapter 5
00:59:37.157                             : en: Chapter 6
01:10:59.505                             : en: Chapter 7
01:20:11.890                             : en: Chapter 8


 http://www.esportgaming.com/

           
Category:Movies > 1080P Bluray
Lang:English  English
Total Size:8.52 GB
Info Hash:a94afed77b56deddc9302efefccc44d01adc18fd
Added By:HDSector
Date Added:08-05-2017 14:03:17
Views:403
Hits:69

Download Torrent

Ratings:Not Yet Rated (Log in to rate it)


Tracker:
http://tracker.trackerfix.com:80/announce


File List: 


Comments

No comments still posted

Powered by 10 Hamsters v2-svn -|- Page Generated In 0.560984 secs.
-|- RSS FEED
Theme By: Nikkbu