[Login] or [Signup]
Login
Username:
Password:
[Signup]
[Recover Account]


Poll


You must be logged in to view polls



Torrent Details For "The.Negotiator.1998.1080p.BluRay.x264.DTS-FGT"

The.Negotiator.1998.1080p.BluRay.x264.DTS-FGT

Download this torrent | Magnet Download
Health:
Seeds: 0
Leechers: 1
Completed:
Last Checked: 07-10-2017 00:50:31
External Torrent
Update Stats
Download Magnet


Poster


iMDB
Imdb Picture Original Title: The Negotiator
Title: Förhandlaren
Year: 1998
Runtime: 140 minutes
Votes: 113334
Rating: 7.3/10
Language: English
Country: Germany, USA
All Genres: Action, Crime, Drama, Mystery, Thriller
Plot Outline: In a desperate attempt to prove his innocence, a skilled police negotiator accused of corruption and murder takes hostages in a government office to gain the time he needs to find the truth.
Tagline: Chicago's two top negotiators must face each other. One of them is holding hostages. The other is demanding surrender. And everyone's holding their breath.
Director: F. Gary Gray
Writing By: James DeMonaco,Kevin Fox,
Produced By: Albert Beveridge,David Hoberman,Arnon Milchan,David Nicksay,Robert Stone,Webster Stone,
Music: Graeme Revell
Plot:

In the midst of an elaborate conspiracy, an expert negotiator is driven to the edge when he's framed for the murder of his partner, as well as embezzling money from his department's pension fund. His only chance to prove his innocence is to take hostages himself, acquire the services of another expert negotiator, and find out who's running the conspiracy before it's too late.

- Written by Ted Walters

Samuel L. Jackson is Danny Roman, a hot shot police negotiator and the man of the hour in the police department. One day he wakes up to find that he has been set up, and now the police are after him. In his panic, he takes control of a building. Knowing all the rules of negotiation, Danny asks for the only negotiator he can trust - Chris Sabian (Kevin Spacey). When the police get itchy trigger fingers and want to go into the building shooting, Sabian finds that the only way he can save Danny Roman's life is to go in there and become his partner. Now the police have to deal with both of them.

- Written by ShowBob <[email protected]>

As a decorated hostage negotiator, Lieutenant Danny Roman has made a career out of talking down dangerous men who don't listen to reason. But he goes off the deep end himself when he is framed for the murder of a colleague investigating corruption in their department. Convinced that the Internal Affairs office contains evidence that can exonerate him, Roman takes everyone inside the building hostage. Roman demands Lieutenant Chris Sabian, known for his anti-violence creed, be brought in to negotiate thinking it will buy him time. When Sabian's attempts for a peaceful resolution are constantly undermined by local authorities, he begins to suspect there may be method to Roman's madness.

- Written by Ronos

In a desperate attempt to prove his innocence, a skilled police negotiator accused of corruption and murder takes hostages in a government office to gain the time he needs to find the truth.

- Written by Kenneth Chisholm
Cast:
Samuel L. Jackson as Danny Roman
Kevin Spacey as Chris Sabian
David Morse as Adam Beck
Ron Rifkin as Grant Frost
John Spencer as Chief Al Travis
J.T. Walsh as Terence Niebaum
Siobhan Fallon Hogan as Maggie
Paul Giamatti as Rudy
Regina Taylor as Karen Roman
Bruce Beatty as Markus


Watch-Free-HD     Download

Details
Name:The.Negotiator.1998.1080p.BluRay.x264.DTS-FGT
Description:




The.Negotiator.1998.1080p.BluRay.x264.DTS-FGT




 



Regizor:
F. Gary Gray
Scenaristi:
James DeMonaco
Kevin Fox
Genul:
Actiune / Mister / Thriller / Drama / Crima
Durata:
139 minute
Subtitle:  Romanian







Video
ID                                       : 1
Format                                   : AVC
Format/Info                              : Advanced Video Codec
Format profile                           : [email protected]
Format settings, CABAC                   : Yes
Format settings, ReFrames                : 5 frames
Codec ID                                 : V_MPEG4/ISO/AVC
Duration                                 : 2 h 19 min
Bit rate                                 : 11.6 Mb/s
Width                                    : 1 920 pixels
Height                                   : 800 pixels
Display aspect ratio                     : 2.40:1
Frame rate mode                          : Constant
Frame rate                               : 23.976 (24000/1001) FPS
Color space                              : YUV
Chroma subsampling                       : 4:2:0
Bit depth                                : 8 bits
Scan type                                : Progressive
Bits/(Pixel*Frame)                       : 0.314
Stream size                              : 11.3 GiB (87%)
Writing library                          : x264 core 133 r2334+704+50
a7549b7 tMod [[email protected] X86_64]









Audio
ID                                       : 2
Format                                   : DTS
Format/Info                              : Digital Theater Systems
Mode                                     : 16
Format settings, Endianness              : Big
Codec ID                                 : A_DTS
Duration                                 : 2 h 19 min
Bit rate mode                            : Constant
Bit rate                                 : 1 536 kb/s
Channel(s)                               : 6 channels
Channel positions                        : Front: L C R, Side: L R, LFE
Sampling rate                            : 48.0 kHz
Frame rate                               : 93.750 FPS (512 spf)
Bit depth                                : 16 bits
Compression mode                         : Lossy
Stream size                              : 1.50 GiB (11%)
Language                                 : English
Default                                  : Yes
Forced                                   : No


Text #2
ID                                       : 4
Format                                   : PGS
Muxing mode                              : zlib
Codec ID                                 : S_HDMV/PGS
Codec ID/Info                            : Picture based subtitle format used on BDs/HD-DVDs
Language                                 : English
Default                                  : No
Forced                                   : No








Unui negociator al politiei i se insceneaza o infractiune de care nu se face
vinovat. Cind alege sa se impotriveasca sistemului corupt si sa dea in vileag
nedreptatile din departamentul de politie, devine automat inamicul public
numarul unu. Singura persoana care vrea sa il inteleaga si sa-l ajute, este
la rindul sau tot un negociator
Category:Movies > 1080P Bluray
Lang:English  English
Total Size:13.03 GB
Info Hash:868323faa51c72807ceddaffed29ffb44fcecb3b
Added By:dill
Date Added:31-08-2017 14:37:09
Views:95
Hits:60

Download Torrent

Ratings:Not Yet Rated (Log in to rate it)

  


Tracker:
udp://p4p.arenabg.com:1337/announce


File List: 



NFO:

Comments

No comments still posted

Powered by 10 Hamsters v2-svn -|- Page Generated In 0.379333 secs.
-|- RSS FEED
Theme By: Nikkbu