[Login] or [Signup]
Login
Username:
Password:
[Signup]
[Recover Account]


Poll


You must be logged in to view polls



Torrent Details For "Blitz 2011 720p Esub BluRay Dual Audio English Hindi GOPISAHI"

Blitz 2011 720p Esub BluRay Dual Audio English Hindi GOPISAHI

Download this torrent | Magnet Download
Health:
Seeds: 1
Leechers: 1
Completed: 1,924 
Last Checked: 13-10-2018 16:56:50
External Torrent
Update Stats
Download Magnet


Poster


iMDB
Imdb Picture Title: Blitz
Year: 2011
Runtime: 97 minutes
Votes: 72400
Rating: 6.2/10
Language: English
Country: UK, France, USA
All Genres: Action, Crime, Thriller
Plot Outline: A tough cop is dispatched to take down a serial killer who has been targeting police officers.
Tagline: It's cop-killer versus killer-cop.
Director: Elliott Lester
Writing By: Nathan Parker,Ken Bruen,
Produced By: Guy Avshalom,Ken Bruen,Steven Chasman,Gisela Evert,Samuel Hadida,Victor Hadida,Lisa Jordan,Zygi Kamasa,Alwyn Kushner,Donald Kushner,Nick Manzi,Alexander O'Neal,Ted Thornton,Brad Wyman,
Music: Ilan Eshkeri
Plot:

Detective Sergeant Tom Brant who is dispatched to take down a serial killer hell bent on killing off the police force one by one. "The Blitz" manages to slip through the grasp of Tom every time, and with the precious lives of his colleagues diminishing one by one, Tom is led to the question: if we can't protect our own, then what good are we?

- Written by Anonymous

In London, the violent Detective Sergeant Tom Brant is in trouble with the press and his superiors request a low profile attitude from him. When a cop killer called Blitz attacks police officers in London, Brant is assigned to the manhunt with his chief, the gay cop Porter Nash. His investigation shows that the criminal is the hoodlum Barry Weiss, but the police can not find any evidence against Barry. When he is released from jail thanks to his lawyer, Brant and Nash put Barry under surveillance expecting a new attack of the Blitz.

- Written by Claudio Carvalho, Rio de Janeiro, Brazil

A tough cop is dispatched to take down a serial killer who has been targeting police officers.

- Written by Anonymous
Cast:
Jason Statham as Brant
Paddy Considine as Nash
Aidan Gillen as Weiss
Zawe Ashton as Falls
David Morrissey as Dunlop
Ned Dennehy as Radnor
Mark Rylance as Roberts
Luke Evans as Stokes
Nicky Henson as Superintendent Brown
Steven Harwood-Brown as Metal
Trailers:
International Trailer


Watch-Free-HD     Download

Details
Name:Blitz 2011 720p Esub BluRay Dual Audio English Hindi GOPISAHI
Description:

General
Unique ID                      : 237752176089495926712.............
Complete name                  : F:\DUB\2011\Blitz 2011 720p Esub BluRay Dual Audio English Hindi GOPISAHI
Format                         : Matroska
Format version                 : Version 4 / Version 2
File size                      : 718 MiB
Duration                       : 1 h 37 min
Overall bit rate               : 1 034 kb/s
Movie name                     : Blitz 2011

Video
Format                         : AVC
Codec ID                       : V_MPEG4/ISO/AVC
Duration                       : 1 h 37 min
Bit rate                       : 904 kb/s
Width                          : 1 280 pixels
Height                         : 544 pixels
Display aspect ratio           : 2.35:1
Frame rate mode                : Constant
Frame rate                     : 24.000 FPSsive
Bits/(Pixel*Frame)             : 0.054
Stream size                    : 627 MiB (87%)
Writing library                : x264 core 115 r1995 c1e60b9

Audio #1
Format                         : AAC
Duration                       : 1 h 37 min
Bit rate                       : 79.9 kb/s
Channel(s)                     : 6 channels
Channel positions              : Front: L C R, Side: L R, LFE
Sampling rate                  : 44.1 kHz
Frame rate                     : 43.066 FPS (1024 SPF)
Stream size                    : 55.4 MiB (8%)
Language                       : English

Audio #2
Format                         : AAC
Duration                       : 1 h 37 min
Bit rate                       : 48.0 kb/s
Channel(s)                     : 6 channels
Channel positions              : Front: L C R, Side: L R, LFE
Sampling rate                  : 44.1 kHz
Frame rate                     : 43.066 FPS (1024 SPF)
Stream size                    : 33.6 MiB (5%)
Language                       : Hindi

Text
Language                       : English


Category:Movies > Hollywood Dub
Lang:Hindi
Total Size:717.69 MB
Info Hash:b241df4c526e546814bc7d0562d94b634fffbfff
Added By:gopisahi
Date Added:31-08-2017 09:47:40
Views:988
Hits:227

Download Torrent

Ratings:Not Yet Rated (Log in to rate it)


Tracker:
udp://tracker.coppersurfer.tk:6969/announce


File List: 


Comments

No comments still posted

Powered by 10 Hamsters v2-svn -|- Page Generated In 0.062105 secs.
-|- RSS FEED
Theme By: Nikkbu