[Login] or [Signup]
Login
Username:
Password:
[Signup]
[Recover Account]


Poll


You must be logged in to view polls



Torrent Details For "Dragon.The.Bruce.Lee.Story.1993.1080p.BluRay.X264-AMIABLE"

Dragon.The.Bruce.Lee.Story.1993.1080p.BluRay.X264-AMIABLE

Download this torrent | Magnet Download
Health:
Seeds: 0
Leechers: 10
Completed:
Last Checked: 22-10-2018 05:50:57
External Torrent
Update Stats
Download Magnet


Poster


iMDB
Imdb Picture Title: Dragon: The Bruce Lee Story
Year: 1993
Runtime: 120 minutes
Votes: 23281
Rating: 7.0/10
Language: English, Cantonese
Country: USA
All Genres: Action, Biography, Drama, Romance
Plot Outline: A fictionalized account of the life of the martial arts superstar.
Tagline: The Mystery. The Life. The Love. The Legend
Director: Rob Cohen
Writing By: Robert Clouse,Linda Lee Cadwell,Edward Khmara,John Raffo,Rob Cohen,
Produced By: John Badham,Kelly Breidenbach,Raffaella De Laurentiis,Hester Hargett,Rick Nathanson,Charles Wang,Dan York,
Music: Randy Edelman
Plot:

Based on the life and career of Martial Arts superstar, Bruce Lee. Haunted by demons. Bruce was taught Martial arts at childhood. Bruce then was told by his father to flee to the United States. There, he opened up a Martial Arts school, then was chosen to be the Green Hornet's sidekick, Kato. Then, his big movie career that included "The Big Boss" and "Enter the Dragon". Fighting many enemies along the way, including his childhood demon.

- Written by John Wiggins

True story of the kung-fu king Bruce Lee that dwells not on his mysterious death but his inspirational life and improbable rise to stardom from the streets of Hong Kong.

- Written by Susan Southall <[email protected]>

A fictionalized account of the life of the martial arts superstar.

- Written by Anonymous and assmn316
Cast:
Jason Scott Lee as Bruce Lee
Lauren Holly as Linda Lee
Robert Wagner as Bill Krieger
Michael Learned as Vivian Emery
Nancy Kwan as Gussie Yang
Kay Tong Lim as Philip Tan
Ric Young as Bruce's Father
Luoyong Wang as Yip Man
Sterling Macer Jr. as Jerome Sprout
Sven-Ole Thorsen as The Demon


Watch-Free-HD     Download

Details
Name:Dragon.The.Bruce.Lee.Story.1993.1080p.BluRay.X264-AMIABLE
Description:
MediaInfo

Video
ID                                       : 1
Format                                   : AVC
Format/Info                              : Advanced Video Codec
Format profile                           : [email protected]
Format settings, CABAC                   : Yes
Format settings, ReFrames                : 5 frames
Codec ID                                 : V_MPEG4/ISO/AVC
Duration                                 : 1 h 59 min
Bit rate                                 : 11.5 Mb/s
Width                                    : 1 920 pixels
Height                                   : 816 pixels
Display aspect ratio                     : 2.35:1
Frame rate mode                          : Constant
Frame rate                               : 23.976 (24000/1001) FPS
Color space                              : YUV
Chroma subsampling                       : 4:2:0
Bit depth                                : 8 bits
Scan type                                : Progressive
Bits/(Pixel*Frame)                       : 0.307
Stream size                              : 9.45 GiB (86%)
Writing library                          : x264 core 144 r2525 40bb568
Encoding settings                        : cabac=1 / ref=5 / deblock=1:-3:-3 / analyse=0x3:0x113 / me=umh / subme=8 / psy=1 / psy_rd=1.00:0.00 / mixed_ref=1 / me_range=16 / chroma_me=1 / trellis=1 / 8x8dct=1 / cqm=0 / deadzone=21,11 / fast_pskip=1 / chroma_qp_offset=-2 / threads=24 / lookahead_threads=4 / sliced_threads=0 / nr=0 / decimate=1 / interlaced=0 / bluray_compat=0 / constrained_intra=0 / bframes=3 / b_pyramid=2 / b_adapt=2 / b_bias=0 / direct=3 / weightb=1 / open_gop=0 / weightp=2 / keyint=240 / keyint_min=24 / scenecut=40 / intra_refresh=0 / rc_lookahead=50 / rc=2pass / mbtree=1 / bitrate=11535 / ratetol=1.0 / qcomp=0.60 / qpmin=0 / qpmax=69 / qpstep=4 / cplxblur=20.0 / qblur=0.5 / ip_ratio=1.40 / aq=1:1.00
Language                                 : English
Default                                  : Yes
Forced                                   : No

Audio
ID                                       : 2
Format                                   : DTS
Format/Info                              : Digital Theater Systems
Mode                                     : 16
Format settings, Endianness              : Big
Codec ID                                 : A_DTS
Duration                                 : 1 h 59 min
Bit rate mode                            : Constant
Bit rate                                 : 1 509 kb/s
Channel(s)                               : 6 channels
Channel positions                        : Front: L C R, Side: L R, LFE
Sampling rate                            : 48.0 kHz
Frame rate                               : 93.750 FPS (512 spf)
Bit depth                                : 24 bits
Compression mode                         : Lossy
Stream size                              : 1.26 GiB (12%)
Language                                 : English
Default                                  : Yes
Forced                                   : No


 http://dyncdn.me/mimages/30907/poster_opt.jpg[/center]
Category:Movies > 1080P Bluray
Lang:English  English
Total Size:10.93 GB
Info Hash:3f14e6eae7440f311924ffc28b04a5071610d858
Added By:Agent47
Date Added:27-08-2017 15:05:14
Views:117
Hits:35

Download Torrent

Ratings:Not Yet Rated (Log in to rate it)


Tracker:
http://tracker.trackerfix.com:80/announce


File List: 


Comments

No comments still posted

Powered by 10 Hamsters v2-svn -|- Page Generated In 0.012019 secs.
-|- RSS FEED
Theme By: Nikkbu