[Login] or [Signup]
Login
Username:
Password:
[Signup]
[Recover Account]


Poll


You must be logged in to view polls



Torrent Details For "Hello.I.Must.Be.Going.2012.LIMITED.1080p.BluRay.X264-AMIABLE"

Hello.I.Must.Be.Going.2012.LIMITED.1080p.BluRay.X264-AMIABLE

Download this torrent | Magnet Download
Health:
Seeds: 0
Leechers: 12
Completed:
Last Checked: 22-10-2018 16:58:50
External Torrent
Update Stats
Download Magnet


Poster


iMDB
Imdb Picture Title: Hello I Must Be Going
Year: 2012
Runtime: 95 minutes
Votes: 4944
Rating: 6.2/10
Language: English
Country: USA
All Genres: Comedy, Drama, Romance
Plot Outline: Circumstances force a young divorcée to move back in with her parents in suburban Connecticut, where an affair with a younger guy rejuvenates her passion for life
Tagline: *Meet Amy Minsky. She's just getting over her divorce.
Director: Todd Louiso
Writing By: Sarah Koskoff,
Produced By: Jonathan Gray,Bingo Gubelmann,Victoria Guenier,Benji Kohn,Susan Leber,Chris Papavasiliou,Hans Ritter,Mary Jane Skalski,Austin Stark,
Music: Laura Veirs
Plot:

Following the break-up with and imminent divorce from her entertainment lawyer husband David, thirty-something Amy moves back in with her upper middle class parents Ruth and Stan Minsky in Westport, Connecticut. David asked for the divorce following an affair he had with who Amy considered a friend. Knowledge of the affair and David asking for the divorce came out of left field for Amy, who thought she had the perfect marriage. In her surprise and shock about David, she left David basically with the clothes on her back, and has not asked for anything in the divorce settlement. Three months later, she is still in a depressed state, not leaving the house and not knowing what to do with her life. She has no real job experience, has only a liberal arts degree, and abandoned her Master's degree studies in Photography to marry David. She believes her parents have mixed feelings about her return. Although they have both welcomed her back, she believes Ruth is critical not so much about what she does but more about what she doesn't do. Focused Ruth has a perfectly laid out plan for the twilight of her and Stan's lives, which largely is to complete the renovations on the house and travel the world, and didn't include Amy moving back in with them. Conversely, Amy believes Stan is the only person who loves her unconditionally, despite he admitting he never knowing the right thing to say to her. To her surprise and reluctance, Amy enters into a clandestine relationship with nineteen year old Jeremy, an actor with a modicum of success and fame. The reason for not telling anyone of the relationship is due to a combination of the differences in their ages, and the fact that Jeremy's stepfather Larry is a potential client of Stan's, Stan who feels that he needs Larry as a client to be able to retire, something he has already postponed due to market forces working against him. As much as both Amy and Jeremy become emotionally invested in the other's life - Jeremy who is facing his own issues, despite the overwhelming support from his therapist mother, Gwen, who is his biggest champion in whatever he does - Amy is still reluctant to classify what they have as a relationship. As certain realities come to light within this collective of people, Amy may come to some conclusions about the post-David phase of her life.

- Written by Huggo

Circumstances force a young divorcée to move back in with her parents in suburban Connecticut, where an affair with a younger guy rejuvenates her passion for life

- Written by IMDb Editors
Cast:
Melanie Lynskey as Amy
Blythe Danner as Ruth
John Rubinstein as Stan
Sara Chase as Missy
Daniel Eric Gold as Noah
Tori Feinstein as Caley
Dave T. Koenig as Gary
Greta Lee as Gap Girl
Meera Simhan as Karen
Julie White as Gwen
Trailers:
No. 1


Watch-Free-HD     Download

Details
Name:Hello.I.Must.Be.Going.2012.LIMITED.1080p.BluRay.X264-AMIABLE
Description:
MediaInfo

Video
ID                                       : 1
Format                                   : AVC
Format/Info                              : Advanced Video Codec
Format profile                           : [email protected]
Format settings, CABAC                   : Yes
Format settings, ReFrames                : 4 frames
Codec ID                                 : V_MPEG4/ISO/AVC
Duration                                 : 1 h 33 min
Bit rate                                 : 8 510 kb/s
Width                                    : 1 920 pixels
Height                                   : 1 080 pixels
Display aspect ratio                     : 16:9
Frame rate mode                          : Constant
Frame rate                               : 23.976 (24000/1001) FPS
Color space                              : YUV
Chroma subsampling                       : 4:2:0
Bit depth                                : 8 bits
Scan type                                : Progressive
Bits/(Pixel*Frame)                       : 0.171
Stream size                              : 5.44 GiB (83%)
Writing library                          : x264 core 144 r2525 40bb568
Encoding settings                        : cabac=1 / ref=4 / deblock=1:-3:-3 / analyse=0x3:0x113 / me=umh / subme=8 / psy=1 / psy_rd=1.00:0.00 / mixed_ref=1 / me_range=16 / chroma_me=1 / trellis=1 / 8x8dct=1 / cqm=0 / deadzone=21,11 / fast_pskip=1 / chroma_qp_offset=-2 / threads=24 / lookahead_threads=4 / sliced_threads=0 / nr=0 / decimate=1 / interlaced=0 / bluray_compat=0 / constrained_intra=0 / bframes=3 / b_pyramid=2 / b_adapt=2 / b_bias=0 / direct=3 / weightb=1 / open_gop=0 / weightp=2 / keyint=240 / keyint_min=24 / scenecut=40 / intra_refresh=0 / rc_lookahead=50 / rc=2pass / mbtree=1 / bitrate=8510 / ratetol=1.0 / qcomp=0.60 / qpmin=0 / qpmax=69 / qpstep=4 / cplxblur=20.0 / qblur=0.5 / ip_ratio=1.40 / aq=1:1.00
Language                                 : English
Default                                  : Yes
Forced                                   : No

Audio
ID                                       : 2
Format                                   : DTS
Format/Info                              : Digital Theater Systems
Mode                                     : 16
Format settings, Endianness              : Big
Codec ID                                 : A_DTS
Duration                                 : 1 h 33 min
Bit rate mode                            : Constant
Bit rate                                 : 1 509 kb/s
Channel(s)                               : 6 channels
Channel positions                        : Front: L C R, Side: L R, LFE
Sampling rate                            : 48.0 kHz
Frame rate                               : 93.750 FPS (512 spf)
Bit depth                                : 24 bits
Compression mode                         : Lossy
Stream size                              : 1 011 MiB (15%)
Language                                 : English
Default                                  : Yes
 http://imagecurl.com/viewer.ph...7215393.png[/center]
Category:Movies > 1080P Bluray
Lang:English  English
Total Size:6.56 GB
Info Hash:ad7f59bcdd51f36e4b04d79dc480bf9e9ddf9f3e
Added By:Agent47
Date Added:27-08-2017 15:03:41
Views:97
Hits:22

Download Torrent

Ratings:Not Yet Rated (Log in to rate it)


Tracker:
http://tracker.trackerfix.com:80/announce


File List: 


Comments

No comments still posted

Powered by 10 Hamsters v2-svn -|- Page Generated In 0.123922 secs.
-|- RSS FEED
Theme By: Nikkbu