[Login] or [Signup]
Login
Username:
Password:
[Signup]
[Recover Account]


Poll


You must be logged in to view polls



Torrent Details For "Babumoshai Bandookbaaz 2017 1CD PDVD-Rip x264 Mafiaking M2Tv"

Babumoshai Bandookbaaz 2017 1CD PDVD-Rip x264 Mafiaking M2Tv

Download this torrent | Magnet Download
Health:
Seeds: 11
Leechers: 0
Completed: 7,541 
Last Checked: 15-11-2018 19:52:38
External Torrent
Update Stats
Download Magnet


Poster


iMDB
Imdb Picture Title: Babumoshai Bandookbaaz
Year: 2017
Runtime: 122 minutes
Votes: 30
Rating: 8.5/10
Language: Hindi, Bengali
Country: India
All Genres: Action, Comedy, Crime, Thriller
Plot Outline: The movie, filled with humor and romance, is a quirky ride into the life and times of a small time contract killer, Babu, played by Nawazuddin Siddiqui. The film spins around his love, his friends, his rivalries and his revenge.
Director: Kushan Nandy
Writing By: Ghalib Asadbhopali,
Produced By: Sanjay Inamdar,Ashmith Kunder,Kushan Nandy,Kiran Shroff,
Plot:

The movie, filled with humor and romance, is a quirky ride into the life and times of a small time contract killer, Babu, played by Nawazuddin Siddiqui. The film spins around his love, his friends, his rivalries and his revenge.

- Written by vhavnal
Cast:
Nawazuddin Siddiqui as Babumoshai Bandookbaaz
Bidita Bag as
Shradha Das as
Divya Dutta as
Murli Sharma as
Sanjay Inamdar as Premchand
Akash as
Sachin Chaubey as
Anil George as
Jatin Goswami as


Watch-Free-HD     Download

Details
Name:Babumoshai Bandookbaaz 2017 1CD PDVD-Rip x264 Mafiaking M2Tv
Description:






 http://www.imdb.com/title/tt6711660/

Ratings: 8.3/10

Genere: Action, Comedy, Crime

General
Complete name : Babumoshai Bandookbaaz (2017) - 1CD - PreDVD-Rip - Hindi - x264 - MP3 - Mafiaking - M2Tv.mkv
Format : Matroska
Format version : Version 4 / Version 2
File size : 697 MiB
Duration : 1 h 59 min
Overall bit rate : 816 kb/s
Movie name : Babumoshai Bandookbaaz (2017) - 1CD - PreDVD-Rip - Hindi - x264 - MP3 - Mafiaking - M2Tv

Video
ID : 1
Format : AVC
Format/Info : Advanced Video Codec
Format profile : [email protected]
Format settings, CABAC : Yes
Format settings, RefFrames : 4 frames
Codec ID : V_MPEG4/ISO/AVC
Duration : 1 h 59 min
Bit rate : 750 kb/s
Width : 640 pixels
Height : 288 pixels
Display aspect ratio : 2.222
Frame rate mode : Constant
Frame rate : 29.970 (30000/1001) FPS
Color space : YUV
Chroma subsampling : 4:2:0
Bit depth : 8 bits
Scan type : Progressive
Bits/(Pixel*Frame) : 0.136
Stream size : 640 MiB (92%)
Title : Mafiaking
Language : Hindi
Default : Yes
Forced : No

Audio
ID : 2
Format : MPEG Audio
Format version : Version 2
Format profile : Layer 3
Mode : Joint stereo
Mode extension : MS Stereo
Codec ID : A_MPEG/L3
Codec ID/Hint : MP3
Duration : 1 h 59 min
Bit rate mode : Constant
Bit rate : 64.0 kb/s
Channel(s) : 2 channels
Sampling rate : 24.0 kHz
Frame rate : 41.667 FPS (576 SPF)
Compression mode : Lossy
Stream size : 54.6 MiB (8%)
Title : Mafiaking
Language : Hindi
Default : Yes
Forced : No

SAMPLE WITH IN TORRENT

**To View Image In Full Size Click on Thumbnails**

     

     

     

     

     

Category:Movies > Bollywood
Lang:Hindi
Total Size:702.76 MB
Info Hash:81c697bdc07c068be486bd740cfbcef82573495f
Added By:Shrawankk
Date Added:26-08-2017 19:57:30
Views:6,088
Hits:7,373

Download Torrent

Ratings:rating: 5.0/5 (5.0 Out Of 5) 2 users have rated this torrent (Log in to rate it)


Tracker:
http://bigfoot1942.sektori.org:6969/announce

This Torrent also has backup trackers
URLSeedersLeechersCompleted
http://bigfoot1942.sektori.org:6969/announce000
http://tracker2.wasabii.com.tw:6969/announce308596
http://bt.artvid.ru:6969/announce000
http://tracker.opentrackr.org/announce000
http://announce.torrentsmd.com:6969/announce000
http://tracker.trackerfix.com/announce000
http://tracker.opentrackr.org/announce000


File List: 


Comments

<< Previous      Next >>
1 - 3

[Report] Posted: 28-08-2017 at 09:19:29
ir2018n



Uploaded: 0.00 B
Downloaded: 0.00 B
Ratio: ---

thx

[Report] Posted: 28-08-2017 at 18:48:52
Harsh7313



Uploaded: 0.00 B
Downloaded: 0.00 B
Ratio: ---

:P  :P  :P  :P  :P

[Report] Posted: 05-09-2017 at 13:07:24
wiki



Uploaded: 0.00 B
Downloaded: 0.00 B
Ratio: ---

Thnkx For Share

1 - 3
<< Previous      Next >>


Powered by 10 Hamsters v2-svn -|- Page Generated In 1.846950 secs.
-|- RSS FEED
Theme By: Nikkbu