[Login] or [Signup]
Login
Username:
Password:
[Signup]
[Recover Account]


Poll


You must be logged in to view polls



Torrent Details For "The New World 2005 EXTENDED REMASTERED 1080p BluRay x264 AAC 5.1- Hon3y"

The New World 2005 EXTENDED REMASTERED 1080p BluRay x264 AAC 5.1- Hon3y

Download this torrent | Magnet Download
Health:
Seeds: 0
Leechers: 11
Completed:
Last Checked: 07-10-2017 17:19:15
External Torrent
Update Stats
Download Magnet


Poster


Watch-Free-HD     Download

Details
Name:The New World 2005 EXTENDED REMASTERED 1080p BluRay x264 AAC 5.1- Hon3y
Description:
The New World 2005 EXTENDED REMASTERED 1080p BluRay x264 AAC 5.1- Hon3y


Format                      : Matroska
Format version              : Version 4 / Version 2
File size                   : 3.99 GiB
Duration                    : 2 h 52 min
Overall bit rate            : 3 321 kb/s
Movie name                  : The New World 2005 EXTENDED REMASTERED - Hon3y


Video
ID                          : 1
Format                      : AVC
Format/Info                 : Advanced Video Codec
Format profile              : [email protected]
Format settings, CABAC      : Yes
Format settings, RefFrames  : 5 frames
Codec ID                    : V_MPEG4/ISO/AVC
Duration                    : 2 h 52 min
Bit rate                    : 3 000 kb/s
Width                       : 1 920 pixels
Height                      : 816 pixels
Display aspect ratio        : 2.35:1
Frame rate mode             : Constant
Frame rate                  : 23.976 (24000/1001) FPS


Audio
ID                          : 2
Format                      : AAC
Format/Info                 : Advanced Audio Codec
Format profile              : LC
Codec ID                    : A_AAC
Duration                    : 2 h 52 min
Bit rate                    : 319 kb/s
Channel(s)                  : 6 channels
Channel positions           : Front: L C R, Side: L R, LFE
Sampling rate               : 48.0 kHz


Text #1
ID                          : 3
Format                      : UTF-8
Codec ID                    : S_TEXT/UTF8
Codec ID/Info               : UTF-8 Plain Text
Duration                    : 2 h 45 min
Bit rate                    : 26 b/s
Count of elements           : 975
Stream size                 : 31.7 KiB (0%)
Language                    : English
Default                     : No
Forced                      : No

Text #2
ID                          : 4
Format                      : UTF-8
Codec ID                    : S_TEXT/UTF8
Codec ID/Info               : UTF-8 Plain Text
Duration                    : 2 h 50 min
Bit rate                    : 29 b/s
Count of elements           : 1229
Stream size                 : 37.3 KiB (0%)
Title                       : SDH
Language                    : English
Default                     : No
Forced                      : No

Chapter- yes


           " target="_blank">  
Category:Movies > 1080P Bluray
Lang:English  English
Total Size:4.01 GB
Info Hash:e5e703b6a3660f601a5fd64e0c7057714583f9f5
Added By:Hon3y
Date Added:25-08-2017 14:32:17
Views:166
Hits:75

Download Torrent

Ratings:Not Yet Rated (Log in to rate it)


Tracker:
http://ipv4.tracker.harry.lu/announce

This Torrent also has backup trackers
URLSeedersLeechersCompleted
http://ipv4.tracker.harry.lu/announce010
http://ipv4.tracker.harry.lu:80/announce010
http://opentracker-milanesi.rhcloud.com/announce000
http://t.nyaatracker.com/announce010
http://tracker.devil-torrents.pl:80/announce010
http://tracker.devil-torrents.pl/announce010
http://open.kickasstracker.com/announce010
http://opentracker-milanesi.rhcloud.com:80/announce000
http://open.kickasstracker.com:443/announce010
http://opentracker-milanesi.rhcloud.com:443/announce000
http://t.nyaatracker.com:80/announce010


File List: 


Comments

No comments still posted

Powered by 10 Hamsters v2-svn -|- Page Generated In 0.482466 secs.
-|- RSS FEED
Theme By: Nikkbu