[Login] or [Signup]
Login
Username:
Password:
[Signup]
[Recover Account]


Poll


You must be logged in to view polls



Torrent Details For " Dekh Kemon Lage (2017) Bengali Movie - 2CD - HDTV Rip[x264 - AC3(5.1Ch)]"

Dekh Kemon Lage (2017) Bengali Movie - 2CD - HDTV Rip[x264 - AC3(5.1Ch)]

Download this torrent | Magnet Download
Health:
Seeds: 0
Leechers: 3
Completed:
Last Checked: 19-09-2017 23:39:16
External Torrent
Update Stats
Download Magnet


Poster


iMDB
Imdb Picture Title: Dekh Kemon Lage
Year: 2017
Runtime: 130 minutes
Language: Bengali
Country: India
All Genres: Comedy
Plot Outline: Rahul Roy returns to his city of joy Kolkata after 6 long years from USA. He has turned out to be one of the well known flirtatious guys.Gunja is his childhood friend who has always saved ...
Director: Abhijit Guha
Writing By: Padmanabha Dasgupta,
Music: Jeet Gannguli
Plot:

Rahul Roy returns to his city of joy Kolkata after 6 long years from USA. He has turned out to be one of the well known flirtatious guys.Gunja is his childhood friend who has always saved him from all his mischievousness. Gunja being a simple middle class innocent girl always helps him out of her love for him which she fails to express.In such a situation Rahul falls in a very difficult yet funny situation and is unable to come out of it. Gunja too denies to help him this time.

- Written by Srijoni Roy
Cast:
Mir Afsar Ali as Uday
Soham Chakraborty as Rahul Roy
Subhasree Ganguly as Gunja Sen


Watch-Free-HD     Download

Details
Name: Dekh Kemon Lage (2017) Bengali Movie - 2CD - HDTV Rip[x264 - AC3(5.1Ch)]
Description:
   Dekh Kemon Lage (2017) Bengali Movie - 2CD -
HDTV Rip[x264 - AC3(5.1Ch)]  
 





General
Format                                   : Matroska
Format version                           : Version 2
File size                                : 1.40 GiB
Duration                                 : 2 h 40 min

Video
ID                                       : 1
Format                                   : AVC
Format/Info                              : Advanced Video Codec
Format profile                           : [email protected]
Format settings, CABAC                   : Yes
Format settings, RefFrames               : 4 frames
Codec ID                                 : V_MPEG4/ISO/AVC
Duration                                 : 2 h 40 min
Bit rate                                 : 1 062 kb/s
Width                                    : 720 pixels
Height                                   : 304 pixels
Display aspect ratio                     : 2.35:1
Frame rate mode                          : Constant
Frame rate                               : 25.000 FPS
Color space                              : YUV
Chroma subsampling                       : 4:2:0
Bit depth                                : 8 bits
Scan type                                : Progressive
Bits/(Pixel*Frame)                       : 0.194
Stream size                              : 1.19 GiB (85%)

Audio
ID                                       : 2
Format                                   : AC-3
Format/Info                              : Audio Coding 3
Format settings, Endianness              : Big
Codec ID                                 : A_AC3
Duration                                 : 2 h 40 min
Bit rate mode                            : Constant
Bit rate                                 : 192 kb/s
Channel(s)                               : 6 channels
Channel positions                        : Front: L C R, Side: L R, LFE
Sampling rate                            : 48.0 kHz
Stream size                              : 220 MiB (15%)

Thumbnail





Category:Movies > Bengali
Lang:Bengali  Bengali
Total Size:1.40 GB
Info Hash:1ee8e98d4f6719b482bfdea46de97352cdf449d9
Added By:Pherarim
Date Added:23-08-2017 04:00:08
Views:452
Hits:92

Download Torrent

Ratings:Not Yet Rated (Log in to rate it)


Tracker:
udp://9.rarbg.me:2710/announce


File List: 


Comments

No comments still posted

Powered by 10 Hamsters v2-svn -|- Page Generated In 0.968707 secs.
-|- RSS FEED
Theme By: Nikkbu