[Login] or [Signup]
Login
Username:
Password:
[Signup]
[Recover Account]


Poll


You must be logged in to view polls



Torrent Details For "Hide.and.Seek.2016.1080p.WEBRip.x264-STRiFE"

Hide.and.Seek.2016.1080p.WEBRip.x264-STRiFE

Download this torrent | Magnet Download
Health:
Seeds: 0
Leechers: 6
Completed:
Last Checked: 13-11-2018 06:55:05
External Torrent
Update Stats
Download Magnet


Poster


iMDB
Imdb Picture Original Title: Zhuo mi cang
Title: Hide and Seek
Year: 2016
Runtime: 105 minutes
Votes: 98
Rating: 6.0/10
Language: Chinese
Country: China
All Genres: Mystery, Thriller
Plot Outline: A man lives in a lovely apartment with his wife and daughter. He is obsessed with cleanliness, has strange dreams and struggles with a mystery from his past. In search of his long-lost ...
Director: Jie Liu
Writing By: Jie Liu,Peng Ren,
Produced By: Lizhi Chen,Ellen Eliasoph,Gigi Qi,
Plot:

A man lives in a lovely apartment with his wife and daughter. He is obsessed with cleanliness, has strange dreams and struggles with a mystery from his past. In search of his long-lost brother, he visits a building complex in a poor part of town, taking his wife and daughter along. While he is looking for clues, his wife outside finds their daughter is missing. A stranger wearing a dark motorcycle helmet appears, frightening her. As the story unfolds, this stranger keeps popping up, becoming ever more threatening.

- Written by Marion Marino
Cast:
Wallace Huo as
Hailu Qin as
Regina Wan as
Zijian Dong as
Jessie Li as


Watch-Free-HD     Download

Details
Name:Hide.and.Seek.2016.1080p.WEBRip.x264-STRiFE
Description:
Video
ID                                       : 1
Format                                   : AVC
Format/Info                              : Advanced Video Codec
Format profile                           : [email protected]
Format settings, CABAC                   : Yes
Format settings, ReFrames                : 5 frames
Codec ID                                 : V_MPEG4/ISO/AVC
Duration                                 : 1h 44mn
Bit rate                                 : 8 775 Kbps
Width                                    : 1 920 pixels
Height                                   : 804 pixels
Display aspect ratio                     : 2.40:1
Frame rate mode                          : Constant
Frame rate                               : 23.976 (24000/1001) fps

Audio
ID                                       : 2
Format                                   : AC-3
Format/Info                              : Audio Coding 3
Mode extension                           : CM (complete main)
Format settings, Endianness              : Big
Codec ID                                 : A_AC3
Duration                                 : 1h 44mn
Bit rate mode                            : Constant
Bit rate                                 : 384 Kbps
Channel(s)                               : 6 channels
Channel positions                        : Front: L C R, Side: L R, LFE
Sampling rate                            : 48.0 KHz
Frame rate                               : 31.250 fps (1536 spf)
Compression mode                         : Lossy
Stream size                              : 287 MiB (4%)
Language                                 : Chinese
Default                                  : Yes
Forced                                   : No

Text #1
ID                                       : 3
Format                                   : UTF-8
Codec ID                                 : S_TEXT/UTF8
Codec ID/Info                            : UTF-8 Plain Text
Duration                                 : 1h 39mn
Bit rate                                 : 27 bps
Count of elements                        : 854
Stream size                              : 20.0 KiB (0%)
Language                                 : English


Category:Movies > HDRips
Lang:Chinese
Total Size:6.67 GB
Info Hash:d183c76328676a52a72fc92a414aaec3cbda35b0
Added By:SULTAN
Date Added:19-08-2017 10:53:32
Views:235
Hits:58

Download Torrent

Ratings:Not Yet Rated (Log in to rate it)


Tracker:
http://tracker.trackerfix.com:80/announce


File List: 


Comments

No comments still posted

Powered by 10 Hamsters v2-svn -|- Page Generated In 0.484073 secs.
-|- RSS FEED
Theme By: Nikkbu