[Login] or [Signup]
Login
Username:
Password:
[Signup]
[Recover Account]


Poll


You must be logged in to view polls



Torrent Details For "My Cousin Rachel 2017 720p BluRay x264 AAC 5.1- Hon3y"

My Cousin Rachel 2017 720p BluRay x264 AAC 5.1- Hon3y

Download this torrent | Magnet Download
Health:
Seeds: 0
Leechers: 36
Completed:
Last Checked: 27-09-2017 23:43:03
External Torrent
Update Stats
Download Magnet


Poster


Watch-Free-HD     Download

Details
Name:My Cousin Rachel 2017 720p BluRay x264 AAC 5.1- Hon3y
Description:
My Cousin Rachel 2017 720p BluRay x264 AAC 5.1- Hon3y


Format                      : Matroska
Format version              : Version 4 / Version 2
File size                   : 1.03 GiB
Duration                    : 1 h 46 min
Overall bit rate            : 1 389 kb/s
Movie name                  : My.Cousin.Rachel.2017- Hon3y


Video
ID                          : 1
Format                      : AVC
Format/Info                 : Advanced Video Codec
Format profile              : [email protected]
Format settings, CABAC      : Yes
Format settings, RefFrames  : 8 frames
Codec ID                    : V_MPEG4/ISO/AVC
Duration                    : 1 h 46 min
Bit rate                    : 1 200 kb/s
Width                       : 1 280 pixels
Height                      : 536 pixels
Display aspect ratio        : 2.40:1
Frame rate mode             : Constant
Frame rate                  : 23.976 (24000/1001) FPS



Audio
ID                          : 2
Format                      : AAC
Format/Info                 : Advanced Audio Codec
Format profile              : LC
Codec ID                    : A_AAC
Duration                    : 1 h 46 min
Bit rate                    : 187 kb/s
Channel(s)                  : 6 channels
Channel positions           : Front: L C R, Side: L R, LFE
Sampling rate               : 48.0 kHz
Frame rate                  : 46.875 FPS (1024 SPF)
Compression mode            : Lossy
Delay relative to video     : 9 ms
Stream size                 : 142 MiB (13%)
Default                     : Yes
Forced                      : No

Text #1
ID                          : 3
Format                      : UTF-8
Codec ID                    : S_TEXT/UTF8
Codec ID/Info               : UTF-8 Plain Text
Duration                    : 1 h 41 min
Bit rate                    : 54 b/s
Count of elements           : 1423
Stream size                 : 40.5 KiB (0%)
Language                    : English
Default                     : Yes
Forced                      : No

Text #2
ID                          : 4
Format                      : UTF-8
Codec ID                    : S_TEXT/UTF8
Codec ID/Info               : UTF-8 Plain Text
Duration                    : 1 h 40 min
Bit rate                    : 105 b/s
Count of elements           : 1746
Stream size                 : 77.9 KiB (0%)
Title                       : Commentary
Language                    : English
Default                     : No
Forced                      : No

Menu
00:00:00.000                : en:00:00:00.000
00:02:58.678                : en:00:02:58.678
00:07:00.378                : en:00:07:00.378
00:10:28.586                : en:00:10:28.586
00:15:20.419                : en:00:15:20.419
00:19:11.692                : en:00:19:11.692
00:23:50.971                : en:00:23:50.971
00:31:10.035                : en:00:31:10.035
00:33:23.168                : en:00:33:23.168
00:38:23.801                : en:00:38:23.801
00:41:37.578                : en:00:41:37.578
00:45:18.424                : en:00:45:18.424
00:52:34.151                : en:00:52:34.151
00:56:19.793                : en:00:56:19.793
00:59:30.275                : en:00:59:30.275
01:03:29.139                : en:01:03:29.139
01:10:56.335                : en:01:10:56.335
01:17:54.962                : en:01:17:54.962
01:21:38.519                : en:01:21:38.519
01:26:31.686                : en:01:26:31.686
01:28:48.156                : en:01:28:48.156
01:33:51.292                : en:01:33:51.292
01:39:14.115                : en:01:39:14.115
01:41:29.417                : en:01:41:29.417

       
Category:Movies > 720P Bluray
Lang:English  English
Total Size:1.03 GB
Info Hash:903a9aaad1829e34f211106a10e64b888d73f8e4
Added By:Hon3y
Date Added:18-08-2017 23:26:06
Views:241
Hits:53

Download Torrent

Ratings:Not Yet Rated (Log in to rate it)


Tracker:
http://ipv4.tracker.harry.lu/announce

This Torrent also has backup trackers
URLSeedersLeechersCompleted
http://ipv4.tracker.harry.lu/announce040
http://ipv4.tracker.harry.lu:80/announce040
http://opentracker-milanesi.rhcloud.com/announce030
http://t.nyaatracker.com/announce010
http://tracker.devil-torrents.pl:80/announce030
http://tracker.devil-torrents.pl/announce030
http://open.kickasstracker.com/announce040
http://opentracker-milanesi.rhcloud.com:80/announce030
http://open.kickasstracker.com:443/announce040
http://opentracker-milanesi.rhcloud.com:443/announce030
http://t.nyaatracker.com:80/announce010


File List: 


Comments

No comments still posted

Powered by 10 Hamsters v2-svn -|- Page Generated In 0.393966 secs.
-|- RSS FEED
Theme By: Nikkbu