[Login] or [Signup]
Login
Username:
Password:
[Signup]
[Recover Account]


Poll


You must be logged in to view polls



Torrent Details For "Paranormal.Activity.2.2010.UNRATED.1080p.BluRay.x264-SECTOR7"

Paranormal.Activity.2.2010.UNRATED.1080p.BluRay.x264-SECTOR7

Download this torrent | Magnet Download
Health:
Seeds: 0
Leechers: 12
Completed:
Last Checked: 04-10-2018 22:30:32
External Torrent
Update Stats
Download Magnet


Poster


iMDB
Imdb Picture Title: Paranormal Activity 2
Year: 2010
Runtime: 91 minutes
Votes: 86630
Rating: 5.7/10
Language: English, Spanish
Country: USA
All Genres: Horror
Plot Outline: After experiencing what they think are a series of "break-ins", a family sets up security cameras around their home, only to realize that the events unfolding before them are more sinister than they seem.
Tagline: In 2009 you demanded it. Nothing can prepare you for what's next.
Director: Tod Williams
Writing By: Michael R. Perry,Christopher Landon,Tom Pabst,Michael R. Perry,Oren Peli,
Produced By: Jason Blum,Jeanette Brill,Akiva Goldsman,Oren Peli,Steven Schneider,
Plot:

Daniel Rey along with his wife, Kristi; daughter, Ali; toddler son, Hunter, and their dog, move to Carlsbad, California. A few days later their residence is broken into, however, nothing appears to be missing. In order to prevent re-occurrences, they install a number of security cameras that will record everything on a DVR. After they hire a Spanish-speaking nanny to look after Hunter, she informs them that there is something wrong in their house and performs prayers, much to the chagrin of Daniel, who lets her go. He will subsequently regret this decision as more inexplicable and strange incidents occur, with Ali concluding, after a research, that their house may be possessed by a demonic entity.

- Written by rAjOo ([email protected])

After experiencing what they think are a series of "break-ins", a family sets up security cameras around their home, only to realize that the events unfolding before them are more sinister than they seem.

- Written by Liam Austen
Cast:
David Bierend as Surveillance Camera Expert
Brian Boland as Daniel Rey
Molly Ephraim as Ali Rey
Katie Featherston as Katie
Seth Ginsberg as Brad
Sprague Grayden as Kristi Rey
William Juan Prieto as Hunter Rey
Jackson Xenia Prieto as Hunter Rey
Micah Sloat as Micah
Vivis Colombetti as Martine
Trailers:
Paranormal Activity 2 -- Fan Trailer
Paranormal Activity 2: Trailer #1


Watch-Free-HD     Download

Details
Name:Paranormal.Activity.2.2010.UNRATED.1080p.BluRay.x264-SECTOR7
Description:
MediaInfo

Video
ID                                       : 1
Format                                   : AVC
Format/Info                              : Advanced Video Codec
Format profile                           : [email protected]
Format settings, CABAC                   : Yes
Format settings, ReFrames                : 4 frames
Codec ID                                 : V_MPEG4/ISO/AVC
Duration                                 : 1 h 38 min
Bit rate                                 : 8 073 kb/s
Width                                    : 1 920 pixels
Height                                   : 1 080 pixels
Display aspect ratio                     : 16:9
Frame rate mode                          : Constant
Frame rate                               : 23.976 FPS
Color space                              : YUV
Chroma subsampling                       : 4:2:0
Bit depth                                : 8 bits
Scan type                                : Progressive
Bits/(Pixel*Frame)                       : 0.162
Stream size                              : 5.38 GiB (82%)
Writing library                          : x264 core 112 r1867 22bfd31
Encoding settings                        : cabac=1 / ref=4 / deblock=1:0:0 / analyse=0x3:0x133 / me=umh / subme=8 / psy=1 / psy_rd=1.00:0.00 / mixed_ref=1 / me_range=16 / chroma_me=1 / trellis=1 / 8x8dct=1 / cqm=0 / deadzone=21,11 / fast_pskip=1 / chroma_qp_offset=-2 / threads=24 / sliced_threads=0 / nr=0 / decimate=1 / interlaced=0 / constrained_intra=0 / bframes=3 / b_pyramid=2 / b_adapt=1 / b_bias=0 / direct=1 / weightb=1 / open_gop=0 / weightp=1 / keyint=250 / keyint_min=23 / scenecut=40 / intra_refresh=0 / rc=2pass / mbtree=0 / bitrate=8073 / ratetol=1.0 / qcomp=0.60 / qpmin=0 / qpmax=51 / qpstep=4 / cplxblur=20.0 / qblur=0.5 / ip_ratio=1.40 / pb_ratio=1.30 / aq=1:1.00
Language                                 : English
Default                                  : No
Forced                                   : No

Audio
ID                                       : 2
Format                                   : DTS
Format/Info                              : Digital Theater Systems
Mode                                     : 16
Format settings, Endianness              : Big
Codec ID                                 : A_DTS
Duration                                 : 1 h 38 min
Bit rate mode                            : Constant
Bit rate                                 : 1 509 kb/s
Channel(s)                               : 6 channels
Channel positions                        : Front: L C R, Side: L R, LFE
Sampling rate                            : 48.0 kHz
Frame rate                               : 93.750 FPS (512 spf)
Bit depth                                : 24 bits
Compression mode                         : Lossy
Stream size                              : 1.03 GiB (16%)
Language                                 : English
Default                                  : Yes
Forced                                   : No

Text
ID                                       : 3
Format                                   : UTF-8
Codec ID                                 : S_TEXT/UTF8
Codec ID/Info                            : UTF-8 Plain Text
Language                                 : English
Default                                  : No
Forced                                   : No 
Category:Movies > 1080P Bluray
Lang:English  English
Total Size:6.54 GB
Info Hash:f04162aa033bc976209eee7dfdca5b3034944f53
Added By:Agent47
Date Added:18-08-2017 18:28:35
Views:105
Hits:53

Download Torrent

Ratings:Not Yet Rated (Log in to rate it)


Tracker:
http://tracker.trackerfix.com:80/announce


File List: 


Comments

No comments still posted

Powered by 10 Hamsters v2-svn -|- Page Generated In 0.019668 secs.
-|- RSS FEED
Theme By: Nikkbu