[Login] or [Signup]
Login
Username:
Password:
[Signup]
[Recover Account]


Poll


You must be logged in to view polls



Torrent Details For "Return.of.Sabata.1971.1080p.BluRay.x264.DTS-FGT"

Return.of.Sabata.1971.1080p.BluRay.x264.DTS-FGT

Download this torrent | Magnet Download
Health:
Seeds: 0
Leechers: 10
Completed:
Last Checked: 11-10-2018 11:21:35
External Torrent
Update Stats
Download Magnet


Poster


iMDB
Imdb Picture Original Title: È tornato Sabata... hai chiuso un'altra volta!
Title: Return of Sabata
Year: 1971
Runtime: 100 minutes
Votes: 1332
Rating: 5.8/10
Language: Italian
Country: Italy, France, West Germany
All Genres: Western
Plot Outline: Hobsonville's citizens hire a gunslinger to rid them of the McIntock clan that is forcibly and unlawfully taxing the townsfolk under the pretext of town development.
Tagline: He's Judge...Jury...Executioner!
Director: Gianfranco Parolini
Writing By: Renato Izzo,Gianfranco Parolini,
Produced By: Alberto Grimaldi,
Music: Marcello Giombini
Plot:

Master gunslinger Sabata arrives in Hobsonville, a town completely owned by McIntock, a robber baron who is taxing the inhabitants for the cost of future improvements to the town. Or that's what McIntock says he'll do with the money...

- Written by Erik Gregersen <[email protected]>

Hobsonville's citizens hire a gunslinger to rid them of the McIntock clan that is forcibly and unlawfully taxing the townsfolk under the pretext of town development.

- Written by nufs68
Cast:
Lee Van Cleef as Sabata / Major
Reiner Schöne as Clyde / Lieutenant
Giampiero Albertini as Joe McIntock
Ignazio Spalla as Bronco
Annabella Incontrera as Maggie, Saloon Girl
Jacqueline Alexandre as Jackie McIntock
Aldo Canti as Angel, acrobat
Vassili Karis as Bionda, acrobat
Steffen Zacharias as Donovan
Pia Giancaro as Diane, Circus Girl


Watch-Free-HD     Download

Details
Name:Return.of.Sabata.1971.1080p.BluRay.x264.DTS-FGT
Description:
MediaInfo

Video
ID                                       : 1
Format                                   : AVC
Format/Info                              : Advanced Video Codec
Format profile                           : [email protected]
Format settings, CABAC                   : Yes
Format settings, ReFrames                : 4 frames
Codec ID                                 : V_MPEG4/ISO/AVC
Duration                                 : 1 h 45 min
Bit rate                                 : 11.5 Mb/s
Width                                    : 1 920 pixels
Height                                   : 820 pixels
Display aspect ratio                     : 2.35:1
Frame rate mode                          : Constant
Frame rate                               : 23.976 (24000/1001) FPS
Color space                              : YUV
Chroma subsampling                       : 4:2:0
Bit depth                                : 8 bits
Scan type                                : Progressive
Bits/(Pixel*Frame)                       : 0.305
Stream size                              : 8.32 GiB (86%)
Title                                    : Return.of.Sabata.1971.1080p.BluRay.x264.DTS-FGT
Writing library                          : x264 core 152 r2851M ba24899
Encoding settings                        : cabac=1 / ref=4 / deblock=1:-2:-2 / analyse=0x3:0x113 / me=umh / subme=7 / psy=1 / psy_rd=1.00:0.15 / mixed_ref=1 / me_range=16 / chroma_me=1 / trellis=1 / 8x8dct=1 / cqm=0 / deadzone=21,11 / fast_pskip=1 / chroma_qp_offset=-3 / threads=24 / lookahead_threads=3 / sliced_threads=0 / nr=0 / decimate=1 / interlaced=0 / bluray_compat=0 / constrained_intra=0 / bframes=3 / b_pyramid=2 / b_adapt=2 / b_bias=0 / direct=3 / weightb=1 / open_gop=0 / weightp=2 / keyint=250 / keyint_min=25 / scenecut=40 / intra_refresh=0 / rc_lookahead=50 / rc=abr / mbtree=1 / bitrate=11500 / ratetol=1.0 / qcomp=0.60 / qpmin=0 / qpmax=69 / qpstep=4 / vbv_maxrate=31250 / vbv_bufsize=31250 / nal_hrd=none / filler=0 / ip_ratio=1.40 / aq=1:1.00
Language                                 : English
Default                                  : Yes
Forced                                   : No

Audio
ID                                       : 2
Format                                   : DTS
Format/Info                              : Digital Theater Systems
Mode                                     : 16
Format settings, Endianness              : Big
Codec ID                                 : A_DTS
Duration                                 : 1 h 45 min
Bit rate mode                            : Constant
Bit rate                                 : 1 509 kb/s
Channel(s)                               : 2 channels
Channel positions                        : Front: L R
Sampling rate                            : 48.0 kHz
Frame rate                               : 93.750 FPS (512 spf)
Bit depth                                : 16 bits
Compression mode                         : Lossy
Stream size                              : 1.12 GiB (12%)
Title                                    : Return.of.Sabata.1971.1080p.BluRay.x264.DTS-FGT
Language                                 : English
Default                                  : Yes
 
Category:Movies > 1080P Bluray
Lang:English  English
Total Size:9.63 GB
Info Hash:de327c0a5696e7fcac8d77bdd615419c28e435bc
Added By:Agent47
Date Added:18-08-2017 18:21:58
Views:94
Hits:21

Download Torrent

Ratings:Not Yet Rated (Log in to rate it)


Tracker:
http://tracker.trackerfix.com:80/announce


File List: 


Comments

No comments still posted

Powered by 10 Hamsters v2-svn -|- Page Generated In 0.065001 secs.
-|- RSS FEED
Theme By: Nikkbu