[Login] or [Signup]
Login
Username:
Password:
[Signup]
[Recover Account]


Poll


You must be logged in to view polls



Torrent Details For "Conjurer.2008.1080p.BluRay.REMUX.MPEG-2.DD5.1-FGT"

Conjurer.2008.1080p.BluRay.REMUX.MPEG-2.DD5.1-FGT

Download this torrent | Magnet Download
Health:
Seeds: 0
Leechers: 2
Completed:
Last Checked: 15-11-2018 13:01:27
External Torrent
Update Stats
Download Magnet


Poster


iMDB
Imdb Picture Title: Conjurer
Year: 2008
Runtime: 100 minutes
Votes: 1234
Rating: 4.9/10
Language: English
Country: USA
All Genres: Horror, Thriller
Plot Outline: After moving to the country to start life anew after their child's death, photographer Shawn Burnett and his wife, Helen, begin to suspect that a ramshackle cabin on their property is ...
Director: Clint Hutchison
Writing By: Clint Hutchison,David Yarbrough,
Produced By: Lance W. Dreesen,Bunny Godard,Shay Griffin,Clint Hutchison,Richard Mix,Day Permuy,Randy Simpkins,
Music: Dana Niu
Plot:

After moving to the country to start life anew after their child's death, photographer Shawn Burnett and his wife, Helen, begin to suspect that a ramshackle cabin on their property is haunted by the malevolent spirit of a long-dead witch who once lived there.

- Written by Anonymous
Cast:
Andrew Bowen as Shawn Burnett
Maxine Bahns as Helen Burnett
John Schneider as Frank Higgins
Tom Nowicki as Marlin Dreyer
Brett Rice as Fulton Moss
Edith Ivey as Mrs. Dreyer
Terrence Gibney as Dr. Letson
Dolan Wilson as Sheriff Clayton
Liz McGeever as Hattie
Nicholaus Teall as Moss Boy


Watch-Free-HD     Download

Details
Name:Conjurer.2008.1080p.BluRay.REMUX.MPEG-2.DD5.1-FGT
Description:
MediaInfo

Video
ID                                       : 1
Format                                   : MPEG Video
Format version                           : Version 2
Format profile                           : [email protected]
Format settings, BVOP                    : Yes
Format settings, Matrix                  : Default
Format settings, GOP                     : M=3, N=15
Format settings, picture structure       : Frame
Codec ID                                 : V_MPEG2
Codec ID/Info                            : MPEG 1 or 2 Video
Duration                                 : 1h 39mn
Bit rate mode                            : Variable
Bit rate                                 : 22.8 Mbps
Maximum bit rate                         : 30.0 Mbps
Width                                    : 1 920 pixels
Height                                   : 1 080 pixels
Display aspect ratio                     : 16:9
Frame rate mode                          : Constant
Frame rate                               : 25.000 fps
Color space                              : YUV
Chroma subsampling                       : 4:2:0
Bit depth                                : 8 bits
Scan type                                : Interlaced
Scan order                               : Top Field First
Compression mode                         : Lossy
Bits/(Pixel*Frame)                       : 0.439
Time code of first frame                 : 00:00:00:00
Time code source                         : Group of pictures header
GOP, Open/Closed                         : Closed
Stream size                              : 15.9 GiB (96%)
Title                                    : Conjurer.2008.1080p.BluRay.REMUX.MPEG-2.DD5.1-FGT
Language                                 : English
Default                                  : No
Forced                                   : No

Audio
ID                                       : 2
Format                                   : AC-3
Format/Info                              : Audio Coding 3
Mode extension                           : CM (complete main)
Format settings, Endianness              : Big
Codec ID                                 : A_AC3
Duration                                 : 1h 39mn
Bit rate mode                            : Constant
Bit rate                                 : 448 Kbps
Channel(s)                               : 6 channels
Channel positions                        : Front: L C R, Side: L R, LFE
Sampling rate                            : 48.0 KHz
Frame rate                               : 31.250 fps (1536 spf)
Compression mode                         : Lossy
Stream size                              : 320 MiB (2%)
Title                                    : Conjurer.2008.1080p.BluRay.REMUX.MPEG-2.DD5.1-FGT
Language                                 : English
Default                                  : Yes
Forced                                   : No

Menu
00:00:00.000                             : en:Chapter 01
00:10:51.000                             : en:Chapter 02
00:30:24.360                             : en:Chapter 03
00:49:49.640                             : en:Chapter 04
01:09:34.440                             : en:Chapter 05
01:21:32.040                             : en:Chapter 06

 
 
 
 
 
 
Category:Movies > Remux
Lang:English  English
Total Size:16.52 GB
Info Hash:794b4b71964900a9a89b5e1809645db7bf1fe7e3
Added By:Unknown
Date Added:03-05-2017 19:51:14
Views:299
Hits:68

Download Torrent

Ratings:Not Yet Rated (Log in to rate it)


Tracker:
http://tracker.trackerfix.com:80/announce


File List: 


Comments

No comments still posted

Powered by 10 Hamsters v2-svn -|- Page Generated In 0.071461 secs.
-|- RSS FEED
Theme By: Nikkbu