[Login] or [Signup]
Login
Username:
Password:
[Signup]
[Recover Account]


Poll


You must be logged in to view polls



Torrent Details For "I.Was.Prey.S01E02.HDTV.x264-W4F [HDSector]"

I.Was.Prey.S01E02.HDTV.x264-W4F [HDSector]

Download this torrent | Magnet Download
Health:
Seeds: 0
Leechers: 22
Completed:
Last Checked: 21-08-2018 05:40:34
External Torrent
Update Stats
Download Magnet


Poster


iMDB
Imdb Picture Title: I Was Prey
Year: 2017
Runtime: 41 minutes
Votes: 10
Rating: 6.2/10
Language: English
Country: USA
All Genres: Reality-TV
Plot Outline: I Was Prey recounts the hauntingly true stories of people who found themselves in a life or death situation, face-to-face with a dangerous animal.

Produced By: Lisa Bosak Lucas,David Bresenham,Rob Shaftel,
Plot:

I Was Prey recounts the hauntingly true stories of people who found themselves in a life or death situation, face-to-face with a dangerous animal.


Cast:
Todd Endris as Himself (2017)
Jim Lane as Himself (2017)
Rachael Lilienthal as Herself (2017)
Andrea Schlake as Herself (2017)


Watch-Free-HD     Download

Details
Name:I.Was.Prey.S01E02.HDTV.x264-W4F [HDSector]
Description:
Video
ID                                       : 1
Format                                   : AVC
Format/Info                              : Advanced Video Codec
Format profile                           : [email protected]
Format settings, CABAC                   : Yes
Format settings, ReFrames                : 5 frames
Codec ID                                 : V_MPEG4/ISO/AVC
Duration                                 : 41mn 37s
Bit rate                                 : 1 161 Kbps
Width                                    : 720 pixels
Height                                   : 404 pixels
Display aspect ratio                     : 16:9
Frame rate mode                          : Constant
Frame rate                               : 29.970 (30000/1001) fps

Audio
ID                                       : 2
Format                                   : AAC
Format/Info                              : Advanced Audio Codec
Format profile                           : LC
Codec ID                                 : A_AAC
Duration                                 : 41mn 37s
Bit rate                                 : 126 Kbps
Channel(s)                               : 2 channels
Channel positions                        : Front: L R
Sampling rate                            : 48.0 KHz
Frame rate                               : 46.875 fps (1024 spf)
Compression mode                         : Lossy
Delay relative to video                  : 20ms
Stream size                              : 37.6 MiB (10%)
Language                                 : English
Default                                  : Yes
Forced                                   : No

Text
ID                                       : 3
Format                                   : UTF-8
Codec ID                                 : S_TEXT/UTF8
Codec ID/Info                            : UTF-8 Plain Text
Duration                                 : 13mn 29s
Bit rate                                 : 27 bps
Count of elements                        : 57
Stream size                              : 2.70 KiB (0%)
Language                                 : English
Default                                  : No
Forced                                   : No


Category:TV > Hollywood
Lang:English  English
Total Size:383.94 MB
Info Hash:cca0c73d0ab5ab8bb5bc0876da9520dcd83e2555
Added By:SULTAN
Date Added:09-08-2017 15:58:05
Views:45
Hits:23

Download Torrent

Ratings:Not Yet Rated (Log in to rate it)


Tracker:
http://tracker.trackerfix.com:80/announce


File List: 


Comments

No comments still posted

Powered by 10 Hamsters v2-svn -|- Page Generated In 0.125177 secs.
-|- RSS FEED
Theme By: Nikkbu